开启左侧

大峡谷探险之河流告急.Grand.Canyon.Adventure.River.at.Risk.2008.4K.DTS.5.1-DHTCLUB

[复制链接]
dhtclub 发表于 2020-5-11 08:02 | 显示全部楼层 |阅读模式 打印 上一主题 下一主题

大峡谷探险之河流告急购买VIP查看下载地址(2010~2006)4K 

简介大峡谷Grand Canyan位于美国亚利桑那州西北部科罗拉多河中游、科罗拉多高原的西南部,是地球上最为壮丽的景色之一,由深邃的山谷所夹峙,分成南壁与北壁两部分。南壁因交通方便,也有旅社等设施,而且在冬季雪期,仍能欣赏天然奇景,因而成为观光大峡谷的中心。
  自冰河时代开始,直到今天,在无数世纪间,科罗拉多河不断地侵蚀大地,终致形成这一大峡谷,长度达347公里。该峡谷起于马布尔峡谷,终端为格兰德瓦什崖,全长446公里,是世界上最长的峡谷之一。峡谷顶宽6至28公里,最深处1800米。从谷顶到谷底需3至4小时。谷底两岸的宽者小于1公里,窄处仅120米。两侧的谷壁呈阶梯状。谷底水面不足1000米宽,夏季冰雪融水下注,水深增至18米。山石多为红色。从谷底至顶部沿壁露出从前寒武纪到新生代各期的系列岩系,水平层次清晰,岩层色调各异,并含有各地质时期代表性的生物化石,故有“活的地质史教科书”之称。
  而今天,由于我们人类的过度开发,我们的地球濒临干涸,因为这颗星球上很多纯净的水资源正在以我们无法想像的速度大肆流逝。科罗拉多河,这条美国最具代表性的河流,大峡谷的骄傲杰作,世界首选的旅游胜地,就让它的故事来告诉我们如何拯救这个危在旦夕的星球,如何应对世界水短缺吧。
导演Greg MacGillivray
编剧未知
类型探险 
地区美国 
语言英语 
集数1集
资源大小19.7G
字幕语言内嵌简中 内嵌英语 
豆瓣评分7.9
豆瓣链接https://movie.douban.com/subject/3560978/
IMDB评分升级VIP查看密码
IMDB链接https://www.imdb.com/title/tt0858497
演员表

大峡谷探险之河流告急 的主要演员表……

罗伯特·雷德福
影片介绍

大峡谷探险之河流告急 的剧情介绍……

大峡谷Grand Canyan位于美国亚利桑那州西北部科罗拉多河中游、科罗拉多高原的西南部,是地球上最为壮丽的景色之一,由深邃的山谷所夹峙,分成南壁与北壁两部分。南壁因交通方便,也有旅社等设施,而且在冬季雪期,仍能欣赏天然奇景,因而成为观光大峡谷的中心。
  自冰河时代开始,直到今天,在无数世纪间,科罗拉多河不断地侵蚀大地,终致形成这一大峡谷,长度达347公里。该峡谷起于马布尔峡谷,终端为格兰德瓦什崖,全长446公里,是世界上最长的峡谷之一。峡谷顶宽6至28公里,最深处1800米。从谷顶到谷底需3至4小时。谷底两岸的宽者小于1公里,窄处仅120米。两侧的谷壁呈阶梯状。谷底水面不足1000米宽,夏季冰雪融水下注,水深增至18米。山石多为红色。从谷底至顶部沿壁露出从前寒武纪到新生代各期的系列岩系,水平层次清晰,岩层色调各异,并含有各地质时期代表性的生物化石,故有“活的地质史教科书”之称。
  而今天,由于我们人类的过度开发,我们的地球濒临干涸,因为这颗星球上很多纯净的水资源正在以我们无法想像的速度大肆流逝。科罗拉多河,这条美国最具代表性的河流,大峡谷的骄傲杰作,世界首选的旅游胜地,就让它的故事来告诉我们如何拯救这个危在旦夕的星球,如何应对世界水短缺吧。
资源下载
1080i/p下载地址 点击查看
4K下载地址 点击查看
《大峡谷探险之河流告急》下载帮助和注意事项:
1、本站所有资源均为磁力链资源,无需注册登录即可查看下载地址
2、使用迅雷或网盘离线是无法下载资源的!必须使用BT下载工具,如果没有下载速度请添加我们提供的tracker服务器列表
3、推荐BT下载工具:比特彗星qbittorrentutorrent 内网使用路由请做好端口映射或开启UPnP
4、不管选择哪种P2P下载工具,都希望你能在条件允许的前提下不要限速多做种分享上传一段时间
5、刻意限制P2P下载工具的上传速度(此行为俗称:吸血)将影响你的下载速度 防止被吸血和防止运营商过滤的教程
6、人人为我我为人人,只有大家不限制上传速度,大家才能共同获得更快的下载速度,这才是P2P应有的良性循环!
7、所有资源来源网络,本站服务器不存储任何种子文件,如侵犯您的权益,请联系 [email protected] 删除资源
点评&资源版本介绍
 
大峡谷探险之河流告急.Grand.Canyon.Adventure.River.at.Risk.2008.4K.DTS.5.1-DHTCLUB.jpg
General
Unique ID                      : 248395804198016424031167051368310623453 (0xBADF4AAF3E75261BA9942D641981CCDD)
Format                         : Matroska
Format version                 : Version 4
File size                      : 19.6 GiB
Duration                       : 44 min 59 s
Overall bit rate mode          : Variable
Overall bit rate               : 62.3 Mb/s
Encoded date                   : UTC 2020-04-17 00:05:50
Writing application            : mkvmerge v45.0.0 ('Heaven in Pennies') 64-bit
Writing library                : libebml v1.3.10 + libmatroska v1.5.2

Video
ID                             : 1
Format                         : HEVC
Format/Info                    : High Efficiency Video Coding
Format profile                 : Main [email protected]@High
Codec ID                       : V_MPEGH/ISO/HEVC
Duration                       : 44 min 59 s
Bit rate                       : 58.0 Mb/s
Width                          : 3 840 pixels
Height                         : 2 160 pixels
Display aspect ratio           : 16:9
Frame rate mode                : Constant
Frame rate                     : 23.976 (24000/1001) FPS
Color space                    : YUV
Chroma subsampling             : 4:2:0
Bit depth                      : 10 bits
Bits/(Pixel*Frame)             : 0.292
Stream size                    : 18.2 GiB (93%)
Writing library                : ATEME Titan KFE 3.7.3 (4.7.3.1003)
Default                        : Yes
Forced                         : No
Color range                    : Limited
Color primaries                : BT.709
Transfer characteristics       : BT.709
Matrix coefficients            : BT.709

Audio
ID                             : 2
Format                         : DTS XLL
Format/Info                    : Digital Theater Systems
Commercial name                : DTS-HD Master Audio
Codec ID                       : A_DTS
Duration                       : 44 min 59 s
Bit rate mode                  : Variable
Bit rate                       : 4 303 kb/s
Channel(s)                     : 6 channels
Channel layout                 : C L R Ls Rs LFE
Sampling rate                  : 48.0 kHz
Frame rate                     : 93.750 FPS (512 SPF)
Bit depth                      : 24 bits
Compression mode               : Lossless
Stream size                    : 1.35 GiB (7%)
Language                       : English
Default                        : Yes
Forced                         : No

Text #1
ID                             : 3
Format                         : PGS
Muxing mode                    : zlib
Codec ID                       : S_HDMV/PGS
Codec ID/Info                  : Picture based subtitle format used on BDs/HD-DVDs
Duration                       : 43 min 23 s
Bit rate                       : 38.8 kb/s
Count of elements              : 846
Stream size                    : 12.0 MiB (0%)
Language                       : English
Default                        : No
Forced                         : No

Text #2
ID                             : 4
Format                         : UTF-8
Codec ID                       : S_TEXT/UTF8
Codec ID/Info                  : UTF-8 Plain Text
Duration                       : 44 min 22 s
Bit rate                       : 43 b/s
Count of elements              : 351
Stream size                    : 14.3 KiB (0%)
Language                       : Chinese
Default                        : Yes
Forced                         : No


分享快乐!
回复

使用道具 举报

 
您需要登录后才可以回帖 登录 | 立即注册

本版积分规则

0关注

11粉丝

838帖子

广告位
经典RPG武侠手游,安卓首发。
  • 版块推荐
  • 百宝箱
推荐阅读更多+
会员达人更多+
广告位
经典RPG武侠手游,安卓首发。

信息推荐

更多+

最新信息

更多+

加入我们!分享快乐!

人人为我,我为人人!抵制吸血和收费分享行为!

从我做起!

只分享高品质影视资源

只求质量、不求数量、不抢首发!

Email:[email protected]

DHTCLUB - 高品质影视资源分享俱乐部