开启左侧

追击龙卷风.Tornado.Alley.2011.4K.DTS.5.1-DHTCLUB

[复制链接]
dhtclub 发表于 2020-5-11 08:07 | 显示全部楼层 |阅读模式 打印 上一主题 下一主题

追击龙卷风购买VIP查看下载地址(2013~2011)4K 

简介龙卷风是自然界中最猛烈的风暴之一。面对这种可以做成严重伤亡的恶劣天气,我们至今对它的形成过程和生命周期仍未能完全理解。美国是全球每年最多龙卷风出现的国家,大多数的龙卷风都集中在中部地势较平坦的几个州份,因此这地带被称为「龙卷风巷」。
  深入了解龙卷风以减低受灾地区的损失,是科学家一直努力工作的目标。唐-伯吉斯联同几位科学家带领着全球超过一百位研究恶劣天气的专家,组成了「漩涡2号」研究队。他们在龙卷风最常出现的地区布置载有雷达的车队、附设流动气象站的货车,以及自行设计的先进气象探测仪器,务求收集更多更深入的资料进行分析,藉此提高龙卷风预报的速度和准确性,令人们有较多的时间躲避疏散,以期将伤亡数字尽量减至最低。另一方面,爱好研究龙卷风的桑恩-凯西和队友无惧危险,追逐龙卷风多年。他们把车辆改装成能抵御时速超过300公里龙卷风的装甲车,并称之为「龙卷风截击车」,誓要驾着它勇闯龙卷风的中央,近距离拍摄其内部的影像,从而揭开龙卷风的真面目。
  「追击龙卷风」会带领你参与这个史上最大型的龙卷风研究计划,跟随研究队深入危机处处的龙卷风巷,探究龙卷风的形成过程、移动路径,以及强度变化等情况。观众更会与几位追风斗士一同闯进龙卷风的心脏地带,置身於具强大破坏力的旋风之中,目击极度恶劣天气环境的实况,感受大自然无比震撼的威力。
导演肖恩·凯西
编剧未知
类型自然 科学 
地区美国 
语言英语 
集数1集
资源大小18.9G
字幕语言内嵌英语 内嵌简中英双语 
豆瓣评分6.6
豆瓣链接https://movie.douban.com/subject/10441156/
IMDB评分升级VIP查看密码
IMDB链接https://www.imdb.com/title/tt1852955
演员表

追击龙卷风 的主要演员表……

未知
影片介绍

追击龙卷风 的剧情介绍……

龙卷风是自然界中最猛烈的风暴之一。面对这种可以做成严重伤亡的恶劣天气,我们至今对它的形成过程和生命周期仍未能完全理解。美国是全球每年最多龙卷风出现的国家,大多数的龙卷风都集中在中部地势较平坦的几个州份,因此这地带被称为「龙卷风巷」。
  深入了解龙卷风以减低受灾地区的损失,是科学家一直努力工作的目标。唐-伯吉斯联同几位科学家带领着全球超过一百位研究恶劣天气的专家,组成了「漩涡2号」研究队。他们在龙卷风最常出现的地区布置载有雷达的车队、附设流动气象站的货车,以及自行设计的先进气象探测仪器,务求收集更多更深入的资料进行分析,藉此提高龙卷风预报的速度和准确性,令人们有较多的时间躲避疏散,以期将伤亡数字尽量减至最低。另一方面,爱好研究龙卷风的桑恩-凯西和队友无惧危险,追逐龙卷风多年。他们把车辆改装成能抵御时速超过300公里龙卷风的装甲车,并称之为「龙卷风截击车」,誓要驾着它勇闯龙卷风的中央,近距离拍摄其内部的影像,从而揭开龙卷风的真面目。
  「追击龙卷风」会带领你参与这个史上最大型的龙卷风研究计划,跟随研究队深入危机处处的龙卷风巷,探究龙卷风的形成过程、移动路径,以及强度变化等情况。观众更会与几位追风斗士一同闯进龙卷风的心脏地带,置身於具强大破坏力的旋风之中,目击极度恶劣天气环境的实况,感受大自然无比震撼的威力。
资源下载
1080i/p下载地址 点击查看
4K下载地址 点击查看
《追击龙卷风》下载帮助和注意事项:
1、本站所有资源均为磁力链资源,无需注册登录即可查看下载地址
2、使用迅雷或网盘离线是无法下载资源的!必须使用BT下载工具,如果没有下载速度请添加我们提供的tracker服务器列表
3、推荐BT下载工具:比特彗星qbittorrentutorrent 内网使用路由请做好端口映射或开启UPnP
4、不管选择哪种P2P下载工具,都希望你能在条件允许的前提下不要限速多做种分享上传一段时间
5、刻意限制P2P下载工具的上传速度(此行为俗称:吸血)将影响你的下载速度 防止被吸血和防止运营商过滤的教程
6、人人为我我为人人,只有大家不限制上传速度,大家才能共同获得更快的下载速度,这才是P2P应有的良性循环!
7、所有资源来源网络,本站服务器不存储任何种子文件,如侵犯您的权益,请联系 [email protected] 删除资源
点评&资源版本介绍
 
追击龙卷风.Tornado.Alley.2011.4K.DTS.5.1-DHTCLUB.jpg
General
Unique ID                      : 141159318390588411664975982462073666122 (0x6A324BBAF9C6C97B43CF002029297A4A)
Format                         : Matroska
Format version                 : Version 4
File size                      : 18.8 GiB
Duration                       : 43 min 26 s
Overall bit rate mode          : Variable
Overall bit rate               : 62.0 Mb/s
Encoded date                   : UTC 2020-04-17 01:27:11
Writing application            : mkvmerge v45.0.0 ('Heaven in Pennies') 64-bit
Writing library                : libebml v1.3.10 + libmatroska v1.5.2

Video
ID                             : 1
Format                         : HEVC
Format/Info                    : High Efficiency Video Coding
Format profile                 : Main [email protected]@High
Codec ID                       : V_MPEGH/ISO/HEVC
Duration                       : 43 min 26 s
Bit rate                       : 58.0 Mb/s
Width                          : 3 840 pixels
Height                         : 2 160 pixels
Display aspect ratio           : 16:9
Frame rate mode                : Constant
Frame rate                     : 23.976 (24000/1001) FPS
Color space                    : YUV
Chroma subsampling             : 4:2:0
Bit depth                      : 10 bits
Bits/(Pixel*Frame)             : 0.292
Stream size                    : 17.6 GiB (94%)
Writing library                : ATEME Titan KFE 3.7.3 (4.7.3.1003)
Default                        : Yes
Forced                         : No
Color range                    : Limited
Color primaries                : BT.709
Transfer characteristics       : BT.709
Matrix coefficients            : BT.709

Audio
ID                             : 2
Format                         : DTS XLL
Format/Info                    : Digital Theater Systems
Commercial name                : DTS-HD Master Audio
Codec ID                       : A_DTS
Duration                       : 43 min 26 s
Bit rate mode                  : Variable
Bit rate                       : 4 001 kb/s
Channel(s)                     : 6 channels
Channel layout                 : C L R Ls Rs LFE
Sampling rate                  : 48.0 kHz
Frame rate                     : 93.750 FPS (512 SPF)
Bit depth                      : 24 bits
Compression mode               : Lossless
Stream size                    : 1.21 GiB (6%)
Language                       : English
Default                        : Yes
Forced                         : No

Text #1
ID                             : 3
Format                         : PGS
Muxing mode                    : zlib
Codec ID                       : S_HDMV/PGS
Codec ID/Info                  : Picture based subtitle format used on BDs/HD-DVDs
Duration                       : 40 min 42 s
Bit rate                       : 42.1 kb/s
Count of elements              : 922
Stream size                    : 12.3 MiB (0%)
Language                       : English
Default                        : No
Forced                         : No

Text #2
ID                             : 4
Format                         : ASS
Codec ID                       : S_TEXT/ASS
Codec ID/Info                  : Advanced Sub Station Alpha
Duration                       : 39 min 49 s
Bit rate                       : 190 b/s
Count of elements              : 416
Compression mode               : Lossless
Stream size                    : 55.6 KiB (0%)
Language                       : Chinese
Default                        : Yes
Forced                         : No

分享快乐!
回复

使用道具 举报

 
您需要登录后才可以回帖 登录 | 立即注册

本版积分规则

0关注

11粉丝

838帖子

广告位
经典RPG武侠手游,安卓首发。
  • 版块推荐
  • 百宝箱
推荐阅读更多+
会员达人更多+
广告位
经典RPG武侠手游,安卓首发。

信息推荐

更多+

最新信息

更多+

加入我们!分享快乐!

人人为我,我为人人!抵制吸血和收费分享行为!

从我做起!

只分享高品质影视资源

只求质量、不求数量、不抢首发!

Email:[email protected]

DHTCLUB - 高品质影视资源分享俱乐部