开启左侧

蓝色星球2.Blue.Planet.II.2017.S02.One.Ocean.BluRay.4K.2160p.x265.10bit.HDR.4Audio-DHTCLUB

[复制链接]
dhtclub 发表于 2020-2-29 11:13 | 显示全部楼层 |阅读模式 打印 上一主题 下一主题

蓝色星球 第二季购买VIP查看下载地址(2017)4K 

简介《蓝色星球II》将由大卫·爱登堡爵士主持。在长达4年的拍摄过程中, 制作团队共执行了125次的探险,水下拍摄时数长达到6000多个小时。与2001年首播的《藍色星球》相隔16年之后,制作团队透过新的科技技术突破以往限制,将许多过去未知的地带、惊人的生物及其令人瞠目结舌的举动呈现在观众眼前
  自从《蓝色星球》2001年开播以来,我们对大海之下生命的理解被彻底颠覆了。从北极熊出没的北冰洋到焕发着勃勃生机的蓝色珊瑚环礁,本系列纪录片同大家分享一些令人吃惊的新发现;邂逅在南冰洋深处神出鬼没的奇怪章鱼,观赏巨大的鲹鱼跳出水面,飞跃到半空中捕鱼;骑在虎鲸的背上,同它一起冲向鱼群。《蓝色星球2》带领我们体验让人敬畏称奇的新地方,见识魅力四射的新物种,了解非同寻常的新行为。
导演詹姆斯·霍尼伯内
编剧大卫·爱登堡
类型自然 动物 
地区英国 
语言普通话 英语 
集数7集
资源大小58.6G
字幕语言内嵌简中 内嵌英语 内嵌简中英双语 
豆瓣评分9.8
豆瓣链接https://movie.douban.com/subject/26979545
IMDB评分升级VIP查看密码
IMDB链接https://www.imdb.com/title/tt6769208
演员表

蓝色星球 第二季 的主要演员表……

影片介绍

蓝色星球 第二季 的剧情介绍……

《蓝色星球II》将由大卫·爱登堡爵士主持。在长达4年的拍摄过程中, 制作团队共执行了125次的探险,水下拍摄时数长达到6000多个小时。与2001年首播的《藍色星球》相隔16年之后,制作团队透过新的科技技术突破以往限制,将许多过去未知的地带、惊人的生物及其令人瞠目结舌的举动呈现在观众眼前
  自从《蓝色星球》2001年开播以来,我们对大海之下生命的理解被彻底颠覆了。从北极熊出没的北冰洋到焕发着勃勃生机的蓝色珊瑚环礁,本系列纪录片同大家分享一些令人吃惊的新发现;邂逅在南冰洋深处神出鬼没的奇怪章鱼,观赏巨大的鲹鱼跳出水面,飞跃到半空中捕鱼;骑在虎鲸的背上,同它一起冲向鱼群。《蓝色星球2》带领我们体验让人敬畏称奇的新地方,见识魅力四射的新物种,了解非同寻常的新行为。
资源下载
1080i/p下载地址 点击查看
4K下载地址 点击查看
《蓝色星球 第二季》下载帮助和注意事项:
1、本站所有资源均为磁力链资源,无需注册登录即可查看下载地址
2、使用迅雷或网盘离线是无法下载资源的!必须使用BT下载工具,如果没有下载速度请添加我们提供的tracker服务器列表
3、推荐BT下载工具:比特彗星qbittorrentutorrent 内网使用路由请做好端口映射或开启UPnP
4、不管选择哪种P2P下载工具,都希望你能在条件允许的前提下不要限速多做种分享上传一段时间
5、刻意限制P2P下载工具的上传速度(此行为俗称:吸血)将影响你的下载速度 防止被吸血和防止运营商过滤的教程
6、人人为我我为人人,只有大家不限制上传速度,大家才能共同获得更快的下载速度,这才是P2P应有的良性循环!
7、所有资源来源网络,本站服务器不存储任何种子文件,如侵犯您的权益,请联系 [email protected] 删除资源
点评&资源版本介绍
 
蓝色星球2.蓝色星球2.Blue.Planet.II.2017.E01.One.Ocean.BluRay.4K.2160P.x265.10bit.jpg
General
Unique ID                      : 188490084926131753638815304091116833463 (0x8DCDDEB051F9DF469291DD28E1C90AB7)
Format                         : Matroska
Format version                 : Version 4
File size                      : 8.06 GiB
Duration                       : 51 min 15 s
Overall bit rate mode          : Variable
Overall bit rate               : 22.5 Mb/s
Encoded date                   : UTC 2018-03-08 04:28:31
Writing application            : mkvmerge v17.0.0 ('Be Ur Friend') 64-bit
Writing library                : libebml v1.3.5 + libmatroska v1.4.8

Video
ID                             : 1
Format                         : HEVC
Format/Info                    : High Efficiency Video Coding
Format profile                 : Main [email protected]@High
HDR format                     : SMPTE ST 2086, HDR10 compatible
Codec ID                       : V_MPEGH/ISO/HEVC
Duration                       : 51 min 15 s
Bit rate                       : 18.3 Mb/s
Width                          : 3 840 pixels
Height                         : 2 160 pixels
Display aspect ratio           : 16:9
Frame rate mode                : Constant
Frame rate                     : 23.976 (24000/1001) FPS
Color space                    : YUV
Chroma subsampling             : 4:2:0 (Type 2)
Bit depth                      : 10 bits
Bits/(Pixel*Frame)             : 0.092
Stream size                    : 6.56 GiB (81%)
Writing library                : x265 2.6+27-2f3c4158cf35:[Windows][MSVC 1912][64 bit] 10bit
Encoding settings              : cpuid=1173503 / frame-threads=6 / numa-pools=20,20 / wpp / no-pmode / no-pme / no-psnr / no-ssim / log-level=2 / input-csp=1 / input-res=3840x2160 / interlace=0 / total-frames=0 / level-idc=51 / high-tier=1 / uhd-bd=0 / ref=5 / no-allow-non-conformance / repeat-headers / annexb / aud / hrd / info / hash=0 / no-temporal-layers / no-open-gop / min-keyint=1 / keyint=360 / gop-lookahead=0 / bframes=9 / b-adapt=2 / b-pyramid / bframe-bias=0 / rc-lookahead=60 / lookahead-slices=4 / scenecut=40 / radl=0 / no-intra-refresh / ctu=32 / min-cu-size=8 / no-rect / no-amp / max-tu-size=32 / tu-inter-depth=2 / tu-intra-depth=2 / limit-tu=4 / rdoq-level=2 / dynamic-rd=0.00 / ssim-rd / signhide / no-tskip / nr-intra=0 / nr-inter=0 / no-constrained-intra / no-strong-intra-smoothing / max-merge=3 / limit-refs=2 / limit-modes / me=2 / subme=7 / merange=57 / temporal-mvp / weightp / weightb / no-analyze-src-pics / deblock=-1:-1 / no-sao / no-sao-non-deblock / rd=4 / no-early-skip / no-rskip / no-fast-intra / no-tskip-fast / no-cu-lossless / b-intra / no-splitrd-skip / rdpenalty=1 / psy-rd=0.00 / psy-rdoq=1.50 / no-rd-refine / no-lossless / cbqpoffs=-3 / crqpoffs=-3 / rc=crf / crf=17.0 / qcomp=0.70 / qpstep=4 / stats-write=0 / stats-read=0 / vbv-maxrate=120000 / vbv-bufsize=120000 / vbv-init=0.9 / crf-max=0.0 / crf-min=0.0 / ipratio=1.40 / pbratio=1.30 / aq-mode=1 / aq-strength=0.80 / cutree / zone-count=0 / no-strict-cbr / qg-size=32 / no-rc-grain / qpmax=69 / qpmin=0 / no-const-vbv / sar=1 / overscan=0 / videoformat=5 / range=0 / colorprim=9 / transfer=16 / colormatrix=9 / chromaloc=1 / chromaloc-top=2 / chromaloc-bottom=2 / display-window=0 / master-display=G(13250,34500)B(7500,3000)R(34000,16000)WP(15635,16450)L(10000000,50) / max-cll=1000,120 / min-luma=0 / max-luma=1023 / log2-max-poc-lsb=8 / vui-timing-info / vui-hrd-info / slices=1 / no-opt-qp-pps / no-opt-ref-list-length-pps / no-multi-pass-opt-rps / scenecut-bias=0.05 / no-opt-cu-delta-qp / no-aq-motion / hdr / hdr-opt / no-dhdr10-opt / analysis-save=(null) / analysis-load=(null) / analysis-reuse-level=5 / scale-factor=0 / refine-intra=0 / refine-inter=0 / refine-mv=0 / no-limit-sao / ctu-info=0 / no-lowpass-dct / refine-mv-type=0 / copy-pic=1
Default                        : Yes
Forced                         : No
Color range                    : Limited
Color primaries                : BT.2020
Transfer characteristics       : PQ
Matrix coefficients            : BT.2020 non-constant
Mastering display color primar : Display P3
Mastering display luminance    : min: 0.0050 cd/m2, max: 1000 cd/m2
Maximum Content Light Level    : 1000 cd/m2
Maximum Frame-Average Light Le : 120 cd/m2

Audio #1
ID                             : 2
Format                         : DTS XLL
Format/Info                    : Digital Theater Systems
Commercial name                : DTS-HD Master Audio
Codec ID                       : A_DTS
Duration                       : 51 min 15 s
Bit rate mode                  : Variable
Bit rate                       : 2 225 kb/s
Channel(s)                     : 6 channels
Channel layout                 : C L R Ls Rs LFE
Sampling rate                  : 48.0 kHz
Frame rate                     : 93.750 FPS (512 SPF)
Bit depth                      : 16 bits
Compression mode               : Lossless
Stream size                    : 816 MiB (10%)
Title                          : 英语DTSHD
Language                       : English
Default                        : Yes
Forced                         : No

Audio #2
ID                             : 3
Format                         : AC-3
Format/Info                    : Audio Coding 3
Commercial name                : Dolby Digital
Codec ID                       : A_AC3
Duration                       : 51 min 15 s
Bit rate mode                  : Constant
Bit rate                       : 640 kb/s
Channel(s)                     : 6 channels
Channel layout                 : L R C LFE Ls Rs
Sampling rate                  : 48.0 kHz
Frame rate                     : 31.250 FPS (1536 SPF)
Bit depth                      : 16 bits
Compression mode               : Lossy
Stream size                    : 235 MiB (3%)
Title                          : 英语
Language                       : English
Service kind                   : Complete Main
Default                        : No
Forced                         : No

Audio #3
ID                             : 4
Format                         : AC-3
Format/Info                    : Audio Coding 3
Commercial name                : Dolby Digital
Codec ID                       : A_AC3
Duration                       : 51 min 15 s
Bit rate mode                  : Constant
Bit rate                       : 640 kb/s
Channel(s)                     : 6 channels
Channel layout                 : L R C LFE Ls Rs
Sampling rate                  : 48.0 kHz
Frame rate                     : 31.250 FPS (1536 SPF)
Bit depth                      : 16 bits
Compression mode               : Lossy
Stream size                    : 235 MiB (3%)
Title                          : 央视国语
Language                       : Chinese
Service kind                   : Complete Main
Default                        : No
Forced                         : No

Audio #4
ID                             : 5
Format                         : AC-3
Format/Info                    : Audio Coding 3
Commercial name                : Dolby Digital
Codec ID                       : A_AC3
Duration                       : 51 min 15 s
Bit rate mode                  : Constant
Bit rate                       : 640 kb/s
Channel(s)                     : 6 channels
Channel layout                 : L R C LFE Ls Rs
Sampling rate                  : 48.0 kHz
Frame rate                     : 31.250 FPS (1536 SPF)
Bit depth                      : 16 bits
Compression mode               : Lossy
Stream size                    : 235 MiB (3%)
Title                          : 官方国语
Language                       : Chinese
Service kind                   : Complete Main
Default                        : No
Forced                         : No

Text #1
ID                             : 6
Format                         : PGS
Muxing mode                    : zlib
Codec ID                       : S_HDMV/PGS
Codec ID/Info                  : Picture based subtitle format used on BDs/HD-DVDs
Duration                       : 50 min 33 s
Bit rate                       : 25.1 kb/s
Count of elements              : 746
Stream size                    : 9.07 MiB (0%)
Title                          : 英文
Language                       : English
Default                        : Yes
Forced                         : No

Text #2
ID                             : 7
Format                         : PGS
Muxing mode                    : zlib
Codec ID                       : S_HDMV/PGS
Codec ID/Info                  : Picture based subtitle format used on BDs/HD-DVDs
Duration                       : 49 min 58 s
Bit rate                       : 18.6 kb/s
Count of elements              : 744
Stream size                    : 6.64 MiB (0%)
Title                          : 央视国配简中
Language                       : Chinese
Default                        : No
Forced                         : No

Text #3
ID                             : 8
Format                         : PGS
Muxing mode                    : zlib
Codec ID                       : S_HDMV/PGS
Codec ID/Info                  : Picture based subtitle format used on BDs/HD-DVDs
Duration                       : 49 min 25 s
Bit rate                       : 19.9 kb/s
Count of elements              : 842
Stream size                    : 7.03 MiB (0%)
Title                          : 简体中文
Language                       : Chinese
Default                        : No
Forced                         : No

Text #4
ID                             : 9
Format                         : PGS
Muxing mode                    : zlib
Codec ID                       : S_HDMV/PGS
Codec ID/Info                  : Picture based subtitle format used on BDs/HD-DVDs
Duration                       : 50 min 4 s
Bit rate                       : 37.5 kb/s
Count of elements              : 1068
Stream size                    : 13.4 MiB (0%)
Title                          : 简英双语特效
Language                       : Chinese
Default                        : No
Forced                         : No

Menu
00:00:00.000                   : en:Chapter 1
00:12:30.332                   : en:Chapter 2
00:19:23.579                   : en:Chapter 3
00:28:35.547                   : en:Chapter 4
00:41:59.183                   : en:Chapter 5

分享快乐!
回复

使用道具 举报

 

精彩评论7

正序浏览
vampire 发表于 2020-2-29 11:49 | 显示全部楼层
 
看过第一季挺不错的纪录片,支持一下!
我爱你的血!
回复

使用道具 举报

 
q276132786 发表于 2020-2-29 14:25 | 显示全部楼层
 
我的小水管有点慌,但质量没得说,真的是高啊。
分享快乐!
回复

使用道具 举报

 
fengdaokanhai 发表于 2020-3-8 16:27 | 显示全部楼层
 
经典啊,有时候无聊了,就看看
分享快乐!
回复

使用道具 举报

 
树静不鸟风 发表于 2020-3-13 10:46 | 显示全部楼层
 
谢谢楼主的分享!这个绝对要顶!!!
分享快乐!
回复

使用道具 举报

 
nymph 发表于 2020-4-9 22:35 | 显示全部楼层
 
这纪录太有名了
分享快乐!
回复

使用道具 举报

 
Sutaly 发表于 2020-4-19 22:38 | 显示全部楼层
 
人有点少,站内的资源速度基本都很慢。
分享快乐!
回复

使用道具 举报

 
dhtclub 发表于 2020-4-20 09:06 | 显示全部楼层
 
Sutaly 发表于 2020-4-19 22:38
人有点少,站内的资源速度基本都很慢。

刚成立不就,1是人少,2是人少的里面也有下完就不留种上传的,所以速度肯定快不起来。
分享快乐!
回复

使用道具 举报

 
您需要登录后才可以回帖 登录 | 立即注册

本版积分规则

0关注

11粉丝

838帖子

广告位
经典RPG武侠手游,安卓首发。
  • 版块推荐
  • 百宝箱
推荐阅读更多+
会员达人更多+
广告位
经典RPG武侠手游,安卓首发。

信息推荐

更多+

最新信息

更多+

加入我们!分享快乐!

人人为我,我为人人!抵制吸血和收费分享行为!

从我做起!

只分享高品质影视资源

只求质量、不求数量、不抢首发!

Email:[email protected]

DHTCLUB - 高品质影视资源分享俱乐部