开启左侧

铁在烧.Iron.in.Burning.2015.HDTV.1080P.AVC-DHTCLUB

[复制链接]
dhtclub 发表于 2020-7-18 22:23 | 显示全部楼层 |阅读模式 打印 上一主题 下一主题

铁在烧购买VIP查看下载地址(2015)1080P 

简介五集纪录片《铁在烧——志愿军第63军铁原战记》围绕抗美援朝第五次战役中的铁原阻击战,讲述志愿军第63军两万多将士顽强阻击强大“联合国军”进攻,使得志愿军主力安然脱险的故事。这场阻击战,因其历史特殊贡献,被后人称之为抗美援朝战场上的“生死逆袭战”。1951年初,奉命入朝作战的志愿军第63军根据战略部署,在没有任何休整的情况下,直接加入到激战正酣的第五次战役当中。面对联合国军猛烈炮火,志愿军第63军将士一路从北向南突破临津江,围歼雪马里,像一把钢刀直插敌人心脏。可就在志愿军势如破竹的展开进攻之时,志愿军司令员彭德怀却下令志愿军全线退守,立即转入防御阶段。这究竟是为什么?而此时63军的任务便是掩护志愿军主力撤退,他们将要面对火力数十倍于己的联合国军死守十四天。这十四天后来被称为“铁原阻击战”,这支华北子弟兵经受了最严酷的考验,也用东方式的军事智慧打得对手一筹莫展。当他们从铁原撤下来的时候,志愿军主力已经休整完毕,在“三十八度线”严阵以待了。失去了进攻势头的“联合国军”铩羽而归。没有此战的胜利,志愿军面临全线退守鸭绿江的危险!如果是那样,中国东北也将不保!朝鲜半岛的历史进程将因此而改变!
  对于这段鲜为人知的历史,本片通过走访中国、韩国、美国当年参战老兵、专家学者,寻找与昔日战斗相关的历史资料,充分还原那场发生在1951年朝鲜半岛上的惨烈战斗——以此来纪念铁原大血战,珍视我们今天来之不易的和平环境。
  第1集 风起铁原
  从今日韩国铁原地区所残留的朝鲜战争遗迹探访进入,逐步揭示出“铁原阻击战”的历史成因,以及这场战斗所处的历史大背景。中国人民志愿军在朝鲜战场上发起的第五次战役,为何在节节胜利的情况下突然停止进攻?在第五次战役中担负主攻任务的第63军,又为何在铁原地区打响了这支部队历史上最惨烈的一场战斗?
  第2集 临危受命
  面对“联合国军”总司令李奇微设防汉城,试图诱伏志愿军的阴谋。中国人民志愿军开始战略后撤。然而,武装到牙齿的“联合国军”紧紧咬住志愿军,利用其强大火力企图将志愿军全歼于此。面对如此危情,时任志愿军第63军军长的傅崇碧以及军中的每名将士临危受命,打响了铁原阻击战的第一枪。他们的面前是“联合国军”的猛烈炮火,他们的背后是正在后撤的志愿军主力部队。这支担负阻击任务的部队究竟能否迟滞敌人钢铁战车推进的速度?
  第3集 生死抉择
  海拔832米的高台山,因坐拥涟川——铁原地区的最高峰而闻名,然而60多年前,这里几乎变成了人间地狱。铁原阻击战中担负高台山地区防御作战的第563团,顽强阻敌7个昼夜,全团开上去1600多人,一仗下来仅剩247人,伤亡之大是团史、师史上的第一次。如此惨烈的一场战斗让活下来的亲历者们都不忍提及,那么在高台山上究竟发生了什么?当年指挥战斗的团长马兆民又经历了一场怎样的生死抉择?
  第4集 最后防线
  志愿军将士们用巨大的牺牲延迟着敌人进攻的脚步,然而这场阻击之战终究要到达它的最后防线。面对不断增援而来、机械化开进的’“联合国军”,此时的志愿军第63军只有一座海拔200多米的孤山可守。他们的身后便是一马平川的开阔地,一旦突破这里,“联合国军”的钢铁战车便直抵铁原。一座孤山、毫无后援,志愿军将士们究竟要怎样拖住眼前的敌人?他们能否给志愿军主力新防线的建立赢取宝贵时间?
  第5集 东方精神
  对于中国军人的“实力不凡”和“不怕死”,曾经交战过的对手们始终视为一个谜,他们无法理解却都首肯心折,他们把原因归结为中国军人身上那谜一般的“东方精神”。那么这谜一般的“东方精神”是什么?当年战场上的对手在今天接受采访之时又有着怎样的感触?
导演暂无
编剧暂无
类型军事 
地区中国内地 
语言普通话 
集数5集
资源大小16.2G
字幕语言内嵌简中 
豆瓣评分9.5
豆瓣链接https://movie.douban.com/subject/26378704/
IMDB评分升级VIP查看密码
IMDB链接
演员表

铁在烧 的主要演员表……

暂无
影片介绍

铁在烧 的剧情介绍……

五集纪录片《铁在烧——志愿军第63军铁原战记》围绕抗美援朝第五次战役中的铁原阻击战,讲述志愿军第63军两万多将士顽强阻击强大“联合国军”进攻,使得志愿军主力安然脱险的故事。这场阻击战,因其历史特殊贡献,被后人称之为抗美援朝战场上的“生死逆袭战”。1951年初,奉命入朝作战的志愿军第63军根据战略部署,在没有任何休整的情况下,直接加入到激战正酣的第五次战役当中。面对联合国军猛烈炮火,志愿军第63军将士一路从北向南突破临津江,围歼雪马里,像一把钢刀直插敌人心脏。可就在志愿军势如破竹的展开进攻之时,志愿军司令员彭德怀却下令志愿军全线退守,立即转入防御阶段。这究竟是为什么?而此时63军的任务便是掩护志愿军主力撤退,他们将要面对火力数十倍于己的联合国军死守十四天。这十四天后来被称为“铁原阻击战”,这支华北子弟兵经受了最严酷的考验,也用东方式的军事智慧打得对手一筹莫展。当他们从铁原撤下来的时候,志愿军主力已经休整完毕,在“三十八度线”严阵以待了。失去了进攻势头的“联合国军”铩羽而归。没有此战的胜利,志愿军面临全线退守鸭绿江的危险!如果是那样,中国东北也将不保!朝鲜半岛的历史进程将因此而改变!
  对于这段鲜为人知的历史,本片通过走访中国、韩国、美国当年参战老兵、专家学者,寻找与昔日战斗相关的历史资料,充分还原那场发生在1951年朝鲜半岛上的惨烈战斗——以此来纪念铁原大血战,珍视我们今天来之不易的和平环境。
  第1集 风起铁原
  从今日韩国铁原地区所残留的朝鲜战争遗迹探访进入,逐步揭示出“铁原阻击战”的历史成因,以及这场战斗所处的历史大背景。中国人民志愿军在朝鲜战场上发起的第五次战役,为何在节节胜利的情况下突然停止进攻?在第五次战役中担负主攻任务的第63军,又为何在铁原地区打响了这支部队历史上最惨烈的一场战斗?
  第2集 临危受命
  面对“联合国军”总司令李奇微设防汉城,试图诱伏志愿军的阴谋。中国人民志愿军开始战略后撤。然而,武装到牙齿的“联合国军”紧紧咬住志愿军,利用其强大火力企图将志愿军全歼于此。面对如此危情,时任志愿军第63军军长的傅崇碧以及军中的每名将士临危受命,打响了铁原阻击战的第一枪。他们的面前是“联合国军”的猛烈炮火,他们的背后是正在后撤的志愿军主力部队。这支担负阻击任务的部队究竟能否迟滞敌人钢铁战车推进的速度?
  第3集 生死抉择
  海拔832米的高台山,因坐拥涟川——铁原地区的最高峰而闻名,然而60多年前,这里几乎变成了人间地狱。铁原阻击战中担负高台山地区防御作战的第563团,顽强阻敌7个昼夜,全团开上去1600多人,一仗下来仅剩247人,伤亡之大是团史、师史上的第一次。如此惨烈的一场战斗让活下来的亲历者们都不忍提及,那么在高台山上究竟发生了什么?当年指挥战斗的团长马兆民又经历了一场怎样的生死抉择?
  第4集 最后防线
  志愿军将士们用巨大的牺牲延迟着敌人进攻的脚步,然而这场阻击之战终究要到达它的最后防线。面对不断增援而来、机械化开进的’“联合国军”,此时的志愿军第63军只有一座海拔200多米的孤山可守。他们的身后便是一马平川的开阔地,一旦突破这里,“联合国军”的钢铁战车便直抵铁原。一座孤山、毫无后援,志愿军将士们究竟要怎样拖住眼前的敌人?他们能否给志愿军主力新防线的建立赢取宝贵时间?
  第5集 东方精神
  对于中国军人的“实力不凡”和“不怕死”,曾经交战过的对手们始终视为一个谜,他们无法理解却都首肯心折,他们把原因归结为中国军人身上那谜一般的“东方精神”。那么这谜一般的“东方精神”是什么?当年战场上的对手在今天接受采访之时又有着怎样的感触?
资源下载
1080i/p下载地址 点击查看
4K下载地址 点击查看
《铁在烧》下载帮助和注意事项:
1、本站所有资源均为磁力链资源,无需注册登录即可查看下载地址
2、使用迅雷或网盘离线是无法下载资源的!必须使用BT下载工具,如果没有下载速度请添加我们提供的tracker服务器列表
3、推荐BT下载工具:比特彗星qbittorrentutorrent 内网使用路由请做好端口映射或开启UPnP
4、不管选择哪种P2P下载工具,都希望你能在条件允许的前提下不要限速多做种分享上传一段时间
5、刻意限制P2P下载工具的上传速度(此行为俗称:吸血)将影响你的下载速度 防止被吸血和防止运营商过滤的教程
6、人人为我我为人人,只有大家不限制上传速度,大家才能共同获得更快的下载速度,这才是P2P应有的良性循环!
7、所有资源来源网络,本站服务器不存储任何种子文件,如侵犯您的权益,请联系 [email protected] 删除资源
点评&资源版本介绍
 
铁在烧.EP01 大海战2-硬核RTS海战游戏-画面党手残党慎入.jpg
General
Unique ID                      : 41038580569837996460764477296669031329 (0x1EDFBE3D13B15F9A255868C805FEFBA1)
Format                         : Matroska
Format version                 : Version 4
File size                      : 3.22 GiB
Duration                       : 49 min 59 s
Overall bit rate               : 9 210 kb/s
Encoded date                   : UTC 2020-07-17 13:11:02
Writing application            : mkvmerge v47.0.0 ('Black Flag') 64-bit
Writing library                : libebml v1.3.10 + libmatroska v1.5.2

Video
ID                             : 1
Format                         : AVC
Format/Info                    : Advanced Video Codec
Format profile                 : [email protected]
Format settings                : 1 Ref Frames
Format settings, CABAC         : No
Format settings, Reference fra : 1 frame
Format settings, GOP           : M=1, N=25
Codec ID                       : V_MPEG4/ISO/AVC
Duration                       : 49 min 59 s
Bit rate                       : 8 888 kb/s
Width                          : 1 920 pixels
Height                         : 1 080 pixels
Display aspect ratio           : 16:9
Frame rate mode                : Constant
Frame rate                     : 25.000 FPS
Color space                    : YUV
Chroma subsampling             : 4:2:0
Bit depth                      : 8 bits
Scan type                      : Progressive
Bits/(Pixel*Frame)             : 0.171
Stream size                    : 3.10 GiB (97%)
Default                        : Yes
Forced                         : No

Audio
ID                             : 2
Format                         : AC-3
Format/Info                    : Audio Coding 3
Commercial name                : Dolby Digital
Codec ID                       : A_AC3
Duration                       : 49 min 59 s
Bit rate mode                  : Constant
Bit rate                       : 320 kb/s
Channel(s)                     : 6 channels
Channel layout                 : L R C LFE Ls Rs
Sampling rate                  : 48.0 kHz
Frame rate                     : 31.250 FPS (1536 SPF)
Compression mode               : Lossy
Stream size                    : 114 MiB (3%)
Service kind                   : Complete Main
Default                        : Yes
Forced                         : No


分享快乐!
回复

使用道具 举报

 

精彩评论3

正序浏览
yukki 发表于 2020-7-20 18:15 | 显示全部楼层
 
看看这个纪录片,感觉不错!
分享快乐!
回复

使用道具 举报

 
dhbskgb 发表于 2020-9-30 17:35 | 显示全部楼层
 
值得收藏的一部纪录片。
分享快乐!
回复

使用道具 举报

 
songht9269 发表于 2021-2-26 11:22 | 显示全部楼层
 
向中国人民志愿军致敬!
分享快乐!
回复

使用道具 举报

 
您需要登录后才可以回帖 登录 | 立即注册

本版积分规则

0关注

11粉丝

838帖子

广告位
经典RPG武侠手游,安卓首发。
  • 版块推荐
  • 百宝箱
推荐阅读更多+
会员达人更多+
广告位
经典RPG武侠手游,安卓首发。

信息推荐

更多+

最新信息

更多+

加入我们!分享快乐!

人人为我,我为人人!抵制吸血和收费分享行为!

从我做起!

只分享高品质影视资源

只求质量、不求数量、不抢首发!

Email:[email protected]

DHTCLUB - 高品质影视资源分享俱乐部