开启左侧

黑猫警长.Black.Sergeant.1984.Webrip.1080p-DHTCLUB

[复制链接]
dhtclub 发表于 2020-9-18 15:39 | 显示全部楼层 |阅读模式 打印 上一主题 下一主题

黑猫警长购买VIP查看下载地址(80年代)1080P 

简介在该动画片中,机智、勇敢、帅气的黑猫警长率领警士侦破了一个又一个危害森林安全的案件,令森林中的各种动物得以过上安枕无忧的日子。
  《痛歼搬仓鼠》一集,它用现代化武器歼灭了一群深夜袭击粮仓的老鼠;《空中擒敌》一集,它用直升机逼巨大的怪兽现出原形;《吃红土的小偷》一集,它处罚了偷吃红土的大象、河马和野猪;《吃丈夫的螳螂》一集,它帮螳螂姑娘洗清了冤屈;《一网打尽》一集,它戴上防毒面具将吃猫鼠一伙及第一集中侥幸逃脱的一只耳一网打尽。
导演戴铁郎 / 范马迪 / 熊南清
编剧戴铁郎 / 诸志祥
类型动画 悬疑 
地区中国内地 
语言普通话 
集数5集
资源大小5.7G
字幕语言无内嵌字幕 
豆瓣评分8.6
豆瓣链接https://movie.douban.com/subject/1860377/
IMDB评分升级VIP查看密码
IMDB链接https://www.imdb.com/title/tt6821884
演员表

黑猫警长 的主要演员表……

史东敏 / 王卫 / 张泉灵 / 杨文元 / 杨玉天 / 范楚绒 / 战车 / 黄翔 / 吴尔朴
影片介绍

黑猫警长 的剧情介绍……

在该动画片中,机智、勇敢、帅气的黑猫警长率领警士侦破了一个又一个危害森林安全的案件,令森林中的各种动物得以过上安枕无忧的日子。
  《痛歼搬仓鼠》一集,它用现代化武器歼灭了一群深夜袭击粮仓的老鼠;《空中擒敌》一集,它用直升机逼巨大的怪兽现出原形;《吃红土的小偷》一集,它处罚了偷吃红土的大象、河马和野猪;《吃丈夫的螳螂》一集,它帮螳螂姑娘洗清了冤屈;《一网打尽》一集,它戴上防毒面具将吃猫鼠一伙及第一集中侥幸逃脱的一只耳一网打尽。
资源下载
1080i/p下载地址 点击查看
4K下载地址 点击查看
《黑猫警长》下载帮助和注意事项:
1、本站所有资源均为磁力链资源,无需注册登录即可查看下载地址
2、使用迅雷或网盘离线是无法下载资源的!必须使用BT下载工具,如果没有下载速度请添加我们提供的tracker服务器列表
3、推荐BT下载工具:比特彗星qbittorrentutorrent 内网使用路由请做好端口映射或开启UPnP
4、不管选择哪种P2P下载工具,都希望你能在条件允许的前提下不要限速多做种分享上传一段时间
5、刻意限制P2P下载工具的上传速度(此行为俗称:吸血)将影响你的下载速度 防止被吸血和防止运营商过滤的教程
6、人人为我我为人人,只有大家不限制上传速度,大家才能共同获得更快的下载速度,这才是P2P应有的良性循环!
7、所有资源来源网络,本站服务器不存储任何种子文件,如侵犯您的权益,请联系 [email protected] 删除资源
点评&资源版本介绍
 
黑猫警长E01 大海战2 硬核RTS海战游戏-画面党手残党慎入.jpg
General
Unique ID                      : 126701119053031960626747326231701722511 (0x5F51BF777FC1101B8B67FC19FD71958F)
Format                         : Matroska
Format version                 : Version 4
File size                      : 703 MiB
Duration                       : 19 min 25 s
Overall bit rate               : 5 059 kb/s
Encoded date                   : UTC 2020-08-18 12:29:18
Writing application            : mkvmerge v49.0.0 ('Sick Of Losing Soulmates') 64-bit
Writing library                : libebml v1.4.0 + libmatroska v1.6.1

Video
ID                             : 1
Format                         : HEVC
Format/Info                    : High Efficiency Video Coding
Format profile                 : Main [email protected]@High
Codec ID                       : V_MPEGH/ISO/HEVC
Duration                       : 19 min 25 s
Bit rate                       : 4 865 kb/s
Width                          : 1 798 pixels
Height                         : 1 080 pixels
Display aspect ratio           : 5:3
Frame rate mode                : Constant
Frame rate                     : 24.000 FPS
Color space                    : YUV
Chroma subsampling             : 4:2:0
Bit depth                      : 10 bits
Bits/(Pixel*Frame)             : 0.104
Stream size                    : 676 MiB (96%)
Writing library                : x265 3.4+7-g38774073d:[Windows][GCC 10.1.0][64 bit] 10bit
Encoding settings              : cpuid=1111039 / frame-threads=2 / numa-pools=4 / wpp / pmode / no-pme / no-psnr / no-ssim / log-level=2 / input-csp=1 / input-res=1798x1080 / interlace=0 / total-frames=27979 / level-idc=0 / high-tier=1 / uhd-bd=0 / ref=4 / no-allow-non-conformance / no-repeat-headers / annexb / no-aud / no-hrd / info / hash=0 / no-temporal-layers / no-open-gop / min-keyint=24 / keyint=250 / gop-lookahead=0 / bframes=10 / b-adapt=2 / b-pyramid / bframe-bias=0 / rc-lookahead=80 / lookahead-slices=0 / scenecut=40 / hist-scenecut=0 / radl=0 / no-splice / no-intra-refresh / ctu=32 / min-cu-size=8 / no-rect / no-amp / max-tu-size=32 / tu-inter-depth=4 / tu-intra-depth=4 / limit-tu=0 / rdoq-level=2 / dynamic-rd=0.00 / no-ssim-rd / signhide / tskip / nr-intra=0 / nr-inter=0 / no-constrained-intra / no-strong-intra-smoothing / max-merge=5 / limit-refs=0 / no-limit-modes / me=3 / subme=7 / merange=44 / temporal-mvp / no-frame-dup / no-hme / weightp / weightb / no-analyze-src-pics / deblock=-1:-1 / no-sao / no-sao-non-deblock / rd=4 / selective-sao=0 / no-early-skip / no-rskip / no-fast-intra / no-tskip-fast / no-cu-lossless / b-intra / no-splitrd-skip / rdpenalty=0 / psy-rd=2.00 / psy-rdoq=1.00 / no-rd-refine / no-lossless / cbqpoffs=-2 / crqpoffs=-2 / rc=crf / crf=22.0 / qcomp=0.65 / qpstep=4 / stats-write=0 / stats-read=0 / vbv-maxrate=160000 / vbv-bufsize=160000 / vbv-init=0.9 / crf-max=0.0 / crf-min=0.0 / ipratio=1.30 / pbratio=1.20 / aq-mode=2 / aq-strength=0.90 / no-cutree / zone-count=0 / no-strict-cbr / qg-size=8 / no-rc-grain / qpmax=69 / qpmin=0 / no-const-vbv / sar=0 / overscan=0 / videoformat=5 / range=0 / colorprim=1 / transfer=1 / colormatrix=1 / chromaloc=0 / display-window=0 / cll=0,0 / min-luma=0 / max-luma=1023 / log2-max-poc-lsb=8 / vui-timing-info / vui-hrd-info / slices=1 / no-opt-qp-pps / no-opt-ref-list-length-pps / no-multi-pass-opt-rps / scenecut-bias=0.05 / hist-threshold=0.01 / no-opt-cu-delta-qp / no-aq-motion / no-hdr10 / no-hdr10-opt / no-dhdr10-opt / no-idr-recovery-sei / analysis-reuse-level=0 / analysis-save-reuse-level=0 / analysis-load-reuse-level=0 / scale-factor=0 / refine-intra=0 / refine-inter=0 / refine-mv=1 / refine-ctu-distortion=0 / no-limit-sao / ctu-info=0 / no-lowpass-dct / refine-analysis-type=0 / copy-pic=1 / max-ausize-factor=1.0 / no-dynamic-refine / no-single-sei / no-hevc-aq / no-svt / no-field / qp-adaptation-range=1.00 / no-scenecut-aware-qpconformance-window-offsets / right=0 / bottom=0 / decoder-max-rate=0
Default                        : Yes
Forced                         : No
Color range                    : Limited
Color primaries                : BT.709
Transfer characteristics       : BT.709
Matrix coefficients            : BT.709

Audio
ID                             : 2
Format                         : AAC LC
Format/Info                    : Advanced Audio Codec Low Complexity
Codec ID                       : A_AAC-2
Duration                       : 19 min 25 s
Bit rate                       : 192 kb/s
Channel(s)                     : 2 channels
Channel layout                 : L R
Sampling rate                  : 48.0 kHz
Frame rate                     : 46.875 FPS (1024 SPF)
Compression mode               : Lossy
Stream size                    : 26.7 MiB (4%)
Default                        : Yes
Forced                         : No


分享快乐!
回复

使用道具 举报

 

精彩评论1

正序浏览
亦儒向东 发表于 2020-9-19 19:15 | 显示全部楼层
 
这个太经典了
分享快乐!
回复

使用道具 举报

 
您需要登录后才可以回帖 登录 | 立即注册

本版积分规则

0关注

11粉丝

838帖子

广告位
经典RPG武侠手游,安卓首发。
  • 版块推荐
  • 百宝箱
推荐阅读更多+
会员达人更多+
广告位
经典RPG武侠手游,安卓首发。

信息推荐

更多+

最新信息

更多+

加入我们!分享快乐!

人人为我,我为人人!抵制吸血和收费分享行为!

从我做起!

只分享高品质影视资源

只求质量、不求数量、不抢首发!

Email:[email protected]

DHTCLUB - 高品质影视资源分享俱乐部