开启左侧

猫屎一号.Cat.Shit.One.2010.BluRay.Remux.1080p.AAC-DHTCLUB

[复制链接]
dhtclub 发表于 2020-9-30 12:04 | 显示全部楼层 |阅读模式 打印 上一主题 下一主题

猫屎一号购买VIP查看下载地址(2010~2006)1080P 

简介自冷战结束后,大量职业军人退伍。但世界范围内恐怖活动与民族纷争不断,因此旨在向世界各地提供佣兵服务的“民间军事公司”应运而生。位于中东的沙漠地区,一辆卡车载着全副武装的恐怖分子和被他们拘押的人质来到沙漠腹地一个秘密据点。据点内外警戒严密,难以靠近。而在不远处的小山丘上,佣兵部队“猫屎一号”的波塔斯基(日野聪 配音)和帕奇(土田大 配音)正在执行监视任务。眼看人质遭到枪杀破坏,帕奇无法等待大部队,他在波塔斯基的掩护下只身闯入重兵把守的敌军阵营。近距离的搏杀,血脉贲张,生死攸关……
  本片根据漫画家漫画家小林源文的动物战争作品《Cat Shit One》改编。
导演笹原和也
编剧小林源文
类型战争 动画 
地区日本 
语言日语 
集数1集
资源大小4.5G
字幕语言内嵌简中 内嵌英语 
豆瓣评分8.2
豆瓣链接https://movie.douban.com/subject/4841238/
IMDB评分升级VIP查看密码
IMDB链接https://www.imdb.com/title/tt2368669
演员表

猫屎一号 的主要演员表……

土田大 / 日野聪
影片介绍

猫屎一号 的剧情介绍……

自冷战结束后,大量职业军人退伍。但世界范围内恐怖活动与民族纷争不断,因此旨在向世界各地提供佣兵服务的“民间军事公司”应运而生。位于中东的沙漠地区,一辆卡车载着全副武装的恐怖分子和被他们拘押的人质来到沙漠腹地一个秘密据点。据点内外警戒严密,难以靠近。而在不远处的小山丘上,佣兵部队“猫屎一号”的波塔斯基(日野聪 配音)和帕奇(土田大 配音)正在执行监视任务。眼看人质遭到枪杀破坏,帕奇无法等待大部队,他在波塔斯基的掩护下只身闯入重兵把守的敌军阵营。近距离的搏杀,血脉贲张,生死攸关……
  本片根据漫画家漫画家小林源文的动物战争作品《Cat Shit One》改编。
资源下载
1080i/p下载地址 点击查看
4K下载地址 点击查看
《猫屎一号》下载帮助和注意事项:
1、本站所有资源均为磁力链资源,无需注册登录即可查看下载地址
2、使用迅雷或网盘离线是无法下载资源的!必须使用BT下载工具,如果没有下载速度请添加我们提供的tracker服务器列表
3、推荐BT下载工具:比特彗星qbittorrentutorrent 内网使用路由请做好端口映射或开启UPnP
4、不管选择哪种P2P下载工具,都希望你能在条件允许的前提下不要限速多做种分享上传一段时间
5、刻意限制P2P下载工具的上传速度(此行为俗称:吸血)将影响你的下载速度 防止被吸血和防止运营商过滤的教程
6、人人为我我为人人,只有大家不限制上传速度,大家才能共同获得更快的下载速度,这才是P2P应有的良性循环!
7、所有资源来源网络,本站服务器不存储任何种子文件,如侵犯您的权益,请联系 [email protected] 删除资源
点评&资源版本介绍
 
猫屎一号.Cat.Shit.One.2010.BluRay.Remux.1080p.AAC-DHTCLUB.jpg
General
Unique ID                      : 35015874170787025199828305756337796643 (0x1A57CFE320A759FC14F33728C348F623)
Format                         : Matroska
Format version                 : Version 4
File size                      : 4.45 GiB
Duration                       : 21 min 37 s
Overall bit rate mode          : Variable
Overall bit rate               : 29.4 Mb/s
Encoded date                   : UTC 2020-04-16 19:50:26
Writing application            : mkvmerge v45.0.0 ('Heaven in Pennies') 64-bit
Writing library                : libebml v1.3.10 + libmatroska v1.5.2

Video
ID                             : 1
Format                         : AVC
Format/Info                    : Advanced Video Codec
Format profile                 : [email protected]
Format settings                : CABAC / 2 Ref Frames
Format settings, CABAC         : Yes
Format settings, Reference fra : 2 frames
Codec ID                       : V_MPEG4/ISO/AVC
Duration                       : 21 min 37 s
Bit rate mode                  : Variable
Bit rate                       : 26.3 Mb/s
Width                          : 1 920 pixels
Height                         : 1 080 pixels
Display aspect ratio           : 16:9
Frame rate mode                : Constant
Frame rate                     : 23.976 (24000/1001) FPS
Color space                    : YUV
Chroma subsampling             : 4:2:0
Bit depth                      : 8 bits
Scan type                      : Progressive
Bits/(Pixel*Frame)             : 0.530
Stream size                    : 3.98 GiB (90%)
Default                        : Yes
Forced                         : No

Audio #1
ID                             : 2
Format                         : PCM
Format settings                : Little / Signed
Codec ID                       : A_PCM/INT/LIT
Duration                       : 21 min 37 s
Bit rate mode                  : Constant
Bit rate                       : 1 536 kb/s
Channel(s)                     : 2 channels
Sampling rate                  : 48.0 kHz
Frame rate                     : 200.000 FPS (240 SPF)
Bit depth                      : 16 bits
Stream size                    : 238 MiB (5%)
Language                       : Japanese
Default                        : Yes
Forced                         : No

Audio #2
ID                             : 3
Format                         : PCM
Format settings                : Little / Signed
Codec ID                       : A_PCM/INT/LIT
Duration                       : 21 min 37 s
Bit rate mode                  : Constant
Bit rate                       : 1 536 kb/s
Channel(s)                     : 2 channels
Sampling rate                  : 48.0 kHz
Frame rate                     : 200.000 FPS (240 SPF)
Bit depth                      : 16 bits
Stream size                    : 238 MiB (5%)
Language                       : English
Default                        : No
Forced                         : No

Text #1
ID                             : 4
Format                         : PGS
Muxing mode                    : zlib
Codec ID                       : S_HDMV/PGS
Codec ID/Info                  : Picture based subtitle format used on BDs/HD-DVDs
Duration                       : 17 min 22 s
Bit rate                       : 50.4 kb/s
Count of elements              : 396
Stream size                    : 6.26 MiB (0%)
Language                       : English
Default                        : No
Forced                         : No

Text #2
ID                             : 5
Format                         : UTF-8
Codec ID                       : S_TEXT/UTF8
Codec ID/Info                  : UTF-8 Plain Text
Duration                       : 18 min 55 s
Bit rate                       : 29 b/s
Count of elements              : 158
Stream size                    : 4.02 KiB (0%)
Language                       : Chinese
Default                        : Yes
Forced                         : No


分享快乐!
回复

使用道具 举报

 

精彩评论1

正序浏览
15351883305 发表于 2020-11-29 13:43 | 显示全部楼层
 
很好,很赞!!
分享快乐!
回复

使用道具 举报

 
您需要登录后才可以回帖 登录 | 立即注册

本版积分规则

0关注

11粉丝

838帖子

广告位
经典RPG武侠手游,安卓首发。
  • 版块推荐
  • 百宝箱
推荐阅读更多+
会员达人更多+
广告位
经典RPG武侠手游,安卓首发。

信息推荐

更多+

最新信息

更多+

加入我们!分享快乐!

人人为我,我为人人!抵制吸血和收费分享行为!

从我做起!

只分享高品质影视资源

只求质量、不求数量、不抢首发!

Email:[email protected]

DHTCLUB - 高品质影视资源分享俱乐部