开启左侧

倚天屠龙记.Heaven.Sword.and.Dragon.Sabre.1994.1080P.H265.AC3-DHTCLUB

[复制链接]
dhtclub 发表于 2020-10-2 14:40 | 显示全部楼层 |阅读模式 打印 上一主题 下一主题

倚天屠龙记购买VIP查看下载地址(90年代)1080P 

简介武当派的张翠山因为和邪教的堂主白眉鹰王的女儿殷素素相恋而为江湖名门正派所不齿,幸好武当派掌门张三丰深明大义,接纳了他们和儿子张无忌(马景涛 饰)。然而所谓的名门正派并不罢休,这天齐集武当派要求张翠山讲出他的结拜兄弟邪教的金毛狮王谢逊的下落,张翠山为人侠义,不肯出卖兄弟,为了不让师傅犯难,和殷素素一起自刎于六大派面前。张无忌就这样成了孤儿,由于无忌从小就身中奇毒,张三丰每隔一段时间都要为他输入真气为他续命,也正由于这样,无忌从小就不能练武,在武当派受尽年青一辈的欺负。一次偶然,无忌掉下了武当山崖,由此开始了他奇妙的江湖之旅。
导演赖水清
编剧关展博 / 陈丽华 / 金庸
类型剧情 古装 武侠 
地区中国台湾 
语言普通话 
集数64集
资源大小115G
字幕语言内嵌繁中 
豆瓣评分7.8
豆瓣链接https://movie.douban.com/subject/1786735/
IMDB评分8.1
IMDB链接https://www.imdb.com/title/tt0106181
演员表

倚天屠龙记 的主要演员表……

马景涛 / 叶童 / 周海媚 / 孙兴 / 萧大陆 / 潘仪君 / 陈孝萱
影片介绍

倚天屠龙记 的剧情介绍……

武当派的张翠山因为和邪教的堂主白眉鹰王的女儿殷素素相恋而为江湖名门正派所不齿,幸好武当派掌门张三丰深明大义,接纳了他们和儿子张无忌(马景涛 饰)。然而所谓的名门正派并不罢休,这天齐集武当派要求张翠山讲出他的结拜兄弟邪教的金毛狮王谢逊的下落,张翠山为人侠义,不肯出卖兄弟,为了不让师傅犯难,和殷素素一起自刎于六大派面前。张无忌就这样成了孤儿,由于无忌从小就身中奇毒,张三丰每隔一段时间都要为他输入真气为他续命,也正由于这样,无忌从小就不能练武,在武当派受尽年青一辈的欺负。一次偶然,无忌掉下了武当山崖,由此开始了他奇妙的江湖之旅。
资源下载
1080i/p下载地址 点击查看
4K下载地址 点击查看
《倚天屠龙记》下载帮助和注意事项:
1、本站所有资源均为磁力链资源,无需注册登录即可查看下载地址
2、使用迅雷或网盘离线是无法下载资源的!必须使用BT下载工具,如果没有下载速度请添加我们提供的tracker服务器列表
3、推荐BT下载工具:比特彗星qbittorrentutorrent 内网使用路由请做好端口映射或开启UPnP
4、不管选择哪种P2P下载工具,都希望你能在条件允许的前提下不要限速多做种分享上传一段时间
5、刻意限制P2P下载工具的上传速度(此行为俗称:吸血)将影响你的下载速度 防止被吸血和防止运营商过滤的教程
6、人人为我我为人人,只有大家不限制上传速度,大家才能共同获得更快的下载速度,这才是P2P应有的良性循环!
7、所有资源来源网络,本站服务器不存储任何种子文件,如侵犯您的权益,请联系 [email protected] 删除资源
点评&资源版本介绍
 
倚天屠龙记.Heaven.Sword.and.Dragon.Sabre.1994.E01.1080P.H265.AC3-DHTCLUB.jpg
General
Unique ID                      : 58773171858340784018473254022193771128 (0x2C374D18E0CAB296588D2EA84C6A7278)
Format                         : Matroska
Format version                 : Version 4
File size                      : 1.80 GiB
Duration                       : 48 min 45 s
Overall bit rate               : 5 297 kb/s
Writing application            : Lavf58.29.100
Writing library                : Lavf58.29.100
ErrorDetectionType             : Per level 1

Video
ID                             : 1
Format                         : HEVC
Format/Info                    : High Efficiency Video Coding
Format profile                 : [email protected]@Main
Codec ID                       : V_MPEGH/ISO/HEVC
Duration                       : 48 min 45 s
Bit rate                       : 4 999 kb/s
Width                          : 1 440 pixels
Height                         : 1 080 pixels
Display aspect ratio           : 4:3
Frame rate mode                : Constant
Frame rate                     : 29.970 (29970/1000) FPS
Color space                    : YUV
Chroma subsampling             : 4:2:0
Bit depth                      : 8 bits
Bits/(Pixel*Frame)             : 0.107
Stream size                    : 1.70 GiB (94%)
Title                          : Encoded.by.小鱼@CMCT
Writing library                : Lavc58.54.100 hevc_nvenc
Default                        : Yes
Forced                         : No

Audio
ID                             : 2
Format                         : AC-3
Format/Info                    : Audio Coding 3
Commercial name                : Dolby Digital
Codec ID                       : A_AC3
Duration                       : 48 min 45 s
Bit rate mode                  : Constant
Bit rate                       : 192 kb/s
Channel(s)                     : 2 channels
Channel layout                 : L R
Sampling rate                  : 48.0 kHz
Frame rate                     : 31.250 FPS (1536 SPF)
Bit depth                      : 32 bits
Compression mode               : Lossy
Stream size                    : 67.0 MiB (4%)
Title                          : 国语.AC3.192Kbps.2channels
Language                       : Chinese
Service kind                   : Complete Main
Default                        : Yes
Forced                         : No


分享快乐!
回复

使用道具 举报

 

精彩评论2

正序浏览
joujou7 发表于 2021-8-27 15:06 | 显示全部楼层
 
哇 这版也有,真的很可爱
分享快乐!
回复

使用道具 举报

 
Flowers 发表于 2021-8-28 01:20 | 显示全部楼层
 
特别喜欢这一版的周芷若!
分享快乐!
回复

使用道具 举报

 
您需要登录后才可以回帖 登录 | 立即注册

本版积分规则

0关注

14粉丝

856帖子

广告位
经典RPG武侠手游,安卓首发。
  • 版块推荐
  • 百宝箱
会员达人更多+
  • e2302

    主题:0 积分:11347
  • reese

    主题:0 积分:8396
  • powwow

    主题:0 积分:3294
广告位
经典RPG武侠手游,安卓首发。

信息推荐

更多+

最新信息

更多+

加入我们!分享快乐!

人人为我,我为人人!抵制吸血和收费分享行为!

从我做起!

只分享高品质影视资源

只求质量、不求数量、不抢首发!

Email:[email protected]

DHTCLUB - 高品质影视资源分享俱乐部