开启左侧

挑战者号:最后的飞行.Challenger.The.Final.Flight.2020.S01.1080p.NF.WEBRip.H264.DDP5.1-DHTCLUB

[复制链接]
dhtclub 发表于 2020-10-5 15:45 | 显示全部楼层 |阅读模式 打印 上一主题 下一主题

挑战者号:最后的飞行购买VIP查看下载地址(2020)1080P 

简介影片聚焦1986年NASA的挑战者号航天飞机升空73秒后爆炸解体,造成7位宇航员丧生的灾难。
  在上世纪70年代,美国人正迫切需要一个振奋人心的消息时,本将成为乘坐宇宙飞船的“第一位黑人”、“第一位女性”和“第一位太空教师”的他们却永远失去了生命,这个不可原谅的错误给美国航 天业甚至是美国政府都带来了无法弥补的信任危机。
导演未知
编剧未知
类型科学 
地区美国 
语言英语 
集数4集
资源大小9G
字幕语言内嵌简中 内嵌繁中 内嵌英语 
豆瓣评分8.7
豆瓣链接https://movie.douban.com/subject/35195020/
IMDB评分升级VIP查看密码
IMDB链接https://www.imdb.com/title/tt12930534
演员表

挑战者号:最后的飞行 的主要演员表……

未知
影片介绍

挑战者号:最后的飞行 的剧情介绍……

影片聚焦1986年NASA的挑战者号航天飞机升空73秒后爆炸解体,造成7位宇航员丧生的灾难。
  在上世纪70年代,美国人正迫切需要一个振奋人心的消息时,本将成为乘坐宇宙飞船的“第一位黑人”、“第一位女性”和“第一位太空教师”的他们却永远失去了生命,这个不可原谅的错误给美国航 天业甚至是美国政府都带来了无法弥补的信任危机。
资源下载
1080i/p下载地址 点击查看
4K下载地址 点击查看
《挑战者号:最后的飞行》下载帮助和注意事项:
1、本站所有资源均为磁力链资源,无需注册登录即可查看下载地址
2、使用迅雷或网盘离线是无法下载资源的!必须使用BT下载工具,如果没有下载速度请添加我们提供的tracker服务器列表
3、推荐BT下载工具:比特彗星qbittorrentutorrent 内网使用路由请做好端口映射或开启UPnP
4、不管选择哪种P2P下载工具,都希望你能在条件允许的前提下不要限速多做种分享上传一段时间
5、刻意限制P2P下载工具的上传速度(此行为俗称:吸血)将影响你的下载速度 防止被吸血和防止运营商过滤的教程
6、人人为我我为人人,只有大家不限制上传速度,大家才能共同获得更快的下载速度,这才是P2P应有的良性循环!
7、所有资源来源网络,本站服务器不存储任何种子文件,如侵犯您的权益,请联系 [email protected] 删除资源
点评&资源版本介绍
 
挑战者号:最后的飞行.E01 大海战2 硬核RTS海战游戏-画面党手残党慎入.jpg
General
Unique ID                      : 223522589162985513420540621545411136385 (0xA828E280642D1A3DBA1FDED4ABD74B81)
Format                         : Matroska
Format version                 : Version 4
File size                      : 1.91 GiB
Duration                       : 44 min 12 s
Overall bit rate               : 6 184 kb/s
Encoded date                   : UTC 2020-09-16 17:05:07
Writing application            : mkvmerge v18.0.0 ('Apricity') 64-bit
Writing library                : libebml v1.3.5 + libmatroska v1.4.8

Video
ID                             : 1
Format                         : AVC
Format/Info                    : Advanced Video Codec
Format profile                 : [email protected]
Format settings                : CABAC / 3 Ref Frames
Format settings, CABAC         : Yes
Format settings, Reference fra : 3 frames
Codec ID                       : V_MPEG4/ISO/AVC
Duration                       : 44 min 11 s
Bit rate                       : 5 542 kb/s
Width                          : 1 920 pixels
Height                         : 1 080 pixels
Display aspect ratio           : 16:9
Frame rate mode                : Constant
Frame rate                     : 23.976 (24000/1001) FPS
Color space                    : YUV
Chroma subsampling             : 4:2:0
Bit depth                      : 8 bits
Scan type                      : Progressive
Bits/(Pixel*Frame)             : 0.111
Stream size                    : 1.71 GiB (90%)
Language                       : English
Default                        : Yes
Forced                         : No

Audio
ID                             : 2
Format                         : E-AC-3
Format/Info                    : Enhanced AC-3
Commercial name                : Dolby Digital Plus
Codec ID                       : A_EAC3
Duration                       : 44 min 12 s
Bit rate mode                  : Constant
Bit rate                       : 640 kb/s
Channel(s)                     : 6 channels
Channel layout                 : L R C LFE Ls Rs
Sampling rate                  : 48.0 kHz
Frame rate                     : 31.250 FPS (1536 SPF)
Compression mode               : Lossy
Delay relative to video        : -83 ms
Stream size                    : 202 MiB (10%)
Language                       : English
Service kind                   : Complete Main
Default                        : Yes
Forced                         : No

Text #1
ID                             : 3
Format                         : UTF-8
Codec ID                       : S_TEXT/UTF8
Codec ID/Info                  : UTF-8 Plain Text
Duration                       : 43 min 5 s
Bit rate                       : 87 b/s
Count of elements              : 641
Stream size                    : 27.6 KiB (0%)
Title                          : CHS
Language                       : Chinese
Default                        : Yes
Forced                         : No

Text #2
ID                             : 4
Format                         : UTF-8
Codec ID                       : S_TEXT/UTF8
Codec ID/Info                  : UTF-8 Plain Text
Duration                       : 43 min 5 s
Bit rate                       : 82 b/s
Count of elements              : 635
Stream size                    : 26.1 KiB (0%)
Title                          : CHT
Language                       : Chinese
Default                        : No
Forced                         : No

Text #3
ID                             : 5
Format                         : UTF-8
Codec ID                       : S_TEXT/UTF8
Codec ID/Info                  : UTF-8 Plain Text
Duration                       : 42 min 15 s
Bit rate                       : 113 b/s
Count of elements              : 679
Stream size                    : 35.1 KiB (0%)
Title                          : ENG
Language                       : English
Default                        : No
Forced                         : No


分享快乐!
回复

使用道具 举报

 
您需要登录后才可以回帖 登录 | 立即注册

本版积分规则

0关注

11粉丝

837帖子

广告位
经典RPG武侠手游,安卓首发。
  • 版块推荐
  • 百宝箱
会员达人更多+
广告位
经典RPG武侠手游,安卓首发。

信息推荐

更多+

最新信息

更多+

加入我们!分享快乐!

人人为我,我为人人!抵制吸血和收费分享行为!

从我做起!

只分享高品质影视资源

只求质量、不求数量、不抢首发!

Email:[email protected]

DHTCLUB - 高品质影视资源分享俱乐部