开启左侧

痞子英雄.Rogue.Heroes.2009.1080P.HDTV.X264.AAC-DHTCLUB

[复制链接]
dhtclub 发表于 2020-10-17 20:54 | 显示全部楼层 |阅读模式 打印 上一主题 下一主题

痞子英雄购买VIP查看下载地址(2010~2006)1080P 

简介海港城北区分局破案王陈在天(周渝民 饰),误跟邱局长的千金上床,而申请调到南区分局工作。在这里,他遇到了性情火爆的拍档吴英雄(赵又廷 饰),后者正在调查毒品dreamer的犯罪团伙。由于陈在天被检验科分析师蓝西英(张钧宁 饰)查出体内含有dreamer成分,而被视为毒物 。加之他平时轻浮放荡的表现,也让吴英雄十分不爽。在办案中,两人结识了三联帮帮主的千金陈琳(陈意涵 饰),三人不打不相识,并在办案中产生感情。在地铁追捕Dreamer罪犯时,陈在天救了陈琳,但后者却认为是吴英雄所为,并对他产生了好感。然而,几次阴差阳错之后,她却慢慢爱上了陈在天。不过,陈在天总是躲闪不敢接受,因为他内心一直纠结于自己的身世之谜。然而,这些人却先后卷入了一场由萨克奇恐怖组织导演的阴谋之中……
  本片获得金钟奖最佳影片、最佳导演,赵又廷凭借此片获封金钟奖视帝。
导演蔡岳勋
编剧吴洛缨 / 陈惠如
类型动作 剧情 罪案 
地区中国台湾 
语言普通话 
集数24集
资源大小27.2G
字幕语言内嵌繁中 
豆瓣评分8.1
豆瓣链接https://movie.douban.com/subject/3543956/
IMDB评分7.3
IMDB链接https://www.imdb.com/title/tt1508870
演员表

痞子英雄 的主要演员表……

周渝民 / 赵又廷 / 陈意涵 / 张钧甯 / 修杰楷 / 隋棠 / 汤志伟 / 秦沛 / 林嘉绮 / 李安卓 / 乔绍恒
影片介绍

痞子英雄 的剧情介绍……

海港城北区分局破案王陈在天(周渝民 饰),误跟邱局长的千金上床,而申请调到南区分局工作。在这里,他遇到了性情火爆的拍档吴英雄(赵又廷 饰),后者正在调查毒品dreamer的犯罪团伙。由于陈在天被检验科分析师蓝西英(张钧宁 饰)查出体内含有dreamer成分,而被视为毒物 。加之他平时轻浮放荡的表现,也让吴英雄十分不爽。在办案中,两人结识了三联帮帮主的千金陈琳(陈意涵 饰),三人不打不相识,并在办案中产生感情。在地铁追捕Dreamer罪犯时,陈在天救了陈琳,但后者却认为是吴英雄所为,并对他产生了好感。然而,几次阴差阳错之后,她却慢慢爱上了陈在天。不过,陈在天总是躲闪不敢接受,因为他内心一直纠结于自己的身世之谜。然而,这些人却先后卷入了一场由萨克奇恐怖组织导演的阴谋之中……
  本片获得金钟奖最佳影片、最佳导演,赵又廷凭借此片获封金钟奖视帝。
资源下载
1080i/p下载地址 点击查看
4K下载地址 点击查看
《痞子英雄》下载帮助和注意事项:
1、本站所有资源均为磁力链资源,无需注册登录即可查看下载地址
2、使用迅雷或网盘离线是无法下载资源的!必须使用BT下载工具,如果没有下载速度请添加我们提供的tracker服务器列表
3、推荐BT下载工具:比特彗星qbittorrentutorrent 内网使用路由请做好端口映射或开启UPnP
4、不管选择哪种P2P下载工具,都希望你能在条件允许的前提下不要限速多做种分享上传一段时间
5、刻意限制P2P下载工具的上传速度(此行为俗称:吸血)将影响你的下载速度 防止被吸血和防止运营商过滤的教程
6、人人为我我为人人,只有大家不限制上传速度,大家才能共同获得更快的下载速度,这才是P2P应有的良性循环!
7、所有资源来源网络,本站服务器不存储任何种子文件,如侵犯您的权益,请联系 [email protected] 删除资源
点评&资源版本介绍
 
痞子英雄.EP01 大海战2 硬核RTS海战游戏-画面党手残党慎入.jpg
General
Format                         : MPEG-4
Format profile                 : Base Media
Codec ID                       : isom (isom/iso2/mp41)
File size                      : 1.37 GiB
Duration                       : 1 h 1 min
Overall bit rate               : 3 206 kb/s
Writing application            : Lavf58.29.100

Video
ID                             : 1
Format                         : HEVC
Format/Info                    : High Efficiency Video Coding
Format profile                 : [email protected]@Main
Codec ID                       : hev1
Codec ID/Info                  : High Efficiency Video Coding
Duration                       : 1 h 1 min
Bit rate                       : 3 070 kb/s
Width                          : 1 920 pixels
Height                         : 1 080 pixels
Display aspect ratio           : 16:9
Frame rate mode                : Constant
Frame rate                     : 29.970 (30000/1001) FPS
Color space                    : YUV
Chroma subsampling             : 4:2:0
Bit depth                      : 8 bits
Scan type                      : Progressive
Bits/(Pixel*Frame)             : 0.049
Stream size                    : 1.32 GiB (96%)
Language                       : English
Menus                          : 3
Codec configuration box        : hvcC

Audio
ID                             : 2
Format                         : AAC LC
Format/Info                    : Advanced Audio Codec Low Complexity
Codec ID                       : mp4a-40-2
Duration                       : 1 h 1 min
Bit rate mode                  : Constant
Bit rate                       : 128 kb/s
Channel(s)                     : 2 channels
Channel layout                 : L R
Sampling rate                  : 48.0 kHz
Frame rate                     : 46.875 FPS (1024 SPF)
Compression mode               : Lossy
Stream size                    : 56.3 MiB (4%)
Default                        : Yes
Alternate group                : 1
Menus                          : 3

Menu #1
ID                             : 3
Codec ID                       : text
Duration                       : 1 h 1 min
Language                       : English
Menu For                       : 1,2
00:00:00.000                   : 00:00:00.054

Menu #2
00:00:00.054                   : 00:00:00.054


分享快乐!
回复

使用道具 举报

 

精彩评论3

正序浏览
taiyan 发表于 2020-10-18 17:05 | 显示全部楼层
 
下不了 啊  辛苦了
分享快乐!
回复

使用道具 举报

 
15351883305 发表于 2021-6-14 05:28 | 显示全部楼层
 
牛鼻,非常清晰,赞了赞!!
分享快乐!
回复

使用道具 举报

 
dhtclub 发表于 2021-6-14 10:30 | 显示全部楼层
 
taiyan 发表于 2020-10-18 17:05
下不了 啊  辛苦了

《痞子英雄》下载帮助和注意事项:1、本站所有资源均为磁力链资源,无需注册登录即可查看下载地址2、使用迅雷或网盘离线是无法下载资源的!必须使用BT下载工具,如果没有下载速度请添加我们提供的tracker服务器列表3、推荐BT下载工具:比特彗星qbittorrentutorrent 内网使用路由请做好端口映射或开启UPnP4、不管选择哪种P2P下载工具,都希望你能在条件允许的前提下不要限速多做种分享上传一段时间5、刻意限制P2P下载工具的上传速度(此行为俗称:吸血)将影响你的下载速度 防止被吸血和防止运营商过滤的教程6、人人为我我为人人,只有大家不限制上传速度,大家才能共同获得更快的下载速度,这才是P2P应有的良性循环!7、所有资源来源网络,本站服务器不存储任何种子文件,如侵犯您的权益,请联系 [email protected] 删除资源
分享快乐!
回复

使用道具 举报

 
您需要登录后才可以回帖 登录 | 立即注册

本版积分规则

0关注

11粉丝

838帖子

广告位
经典RPG武侠手游,安卓首发。
  • 版块推荐
  • 百宝箱
推荐阅读更多+
会员达人更多+
广告位
经典RPG武侠手游,安卓首发。

信息推荐

更多+

最新信息

更多+

加入我们!分享快乐!

人人为我,我为人人!抵制吸血和收费分享行为!

从我做起!

只分享高品质影视资源

只求质量、不求数量、不抢首发!

Email:[email protected]

DHTCLUB - 高品质影视资源分享俱乐部