开启左侧

从《中国》到中国.From.Chung.Kuo.to.China.2019.1080p.WEB-DL.H264.AAC-DHTCLUB

[复制链接]
dhtclub 发表于 2020-10-21 22:48 | 显示全部楼层 |阅读模式 打印 上一主题 下一主题

从《中国》到中国购买VIP查看下载地址(2019)1080P 

简介上世纪七十年代,在中国还没有全面开放之时,来自意大利、法国、美国和日本的四位纪录片大师不约而同地来到中国,用镜头记录下了中国和中国人生活的方方面面,留下了四部轰动世界的纪录影像——《中国》(意大利)、《愚公移山》(法国)、《从毛泽东到莫扎特》(美国)、《上海新风》(日本)。这些影像,不仅让世界第一次大范围了解中国,也为中国人回顾历史、回忆父辈祖辈,留下了宝贵的财富。四十年过去了,中国发生了哪些变化?影像中出现过的那些普通人,还能否寻觅?
  今天,同样是来自意大利、法国、美国和日本的四位国际友人,再次来到中国。曾经的影像,让他们第一次模模糊糊地认识了中国,此刻,他们决定用自己的双眼,看看如今的中国,发生了那些巨变。难能可贵的是,他们重新找到了那些出现在过去影像中的普通人,通过贴近的观察、真实的记录,将中国四十多年的变化自然呈现在眼前。
  我们用一部五集纪录片,一年的时间,记录下了四位寻访人的探索中国历程,在新、旧画面之间的切换自然流露出岁月的力量,巨大的变迁,就在这看似不经意的巧妙变换中,让人感慨、深思。
导演朱允 / 牛慧清 / 刘维夫 / 李艺彤 / 季家希 / 张哲 / 潘雷
编剧刘维夫 / 李艺彤 / 潘雷 / 季家希 / 张哲
类型历史 
地区中国内地 
语言普通话 
集数5集
资源大小4.7G
字幕语言内嵌简中 
豆瓣评分8.0
豆瓣链接https://movie.douban.com/subject/30490270/
IMDB评分升级VIP查看密码
IMDB链接
演员表

从《中国》到中国 的主要演员表……

老高 / 斯坦尼斯拉斯 / 大卫·斯特恩 / 牛山徹也 / 王健 / 宋立芬 / 徐惟聆 / 郎佳子彧 / 裘继戎 / 刘丽雯 / 卢西亚诺·都沃里 / 弗里奥·科隆布 / 恩丽卡·安东尼奥尼 / 马雍喜 / 马东升 / 欧阳娟娟 / 陆颂和
影片介绍

从《中国》到中国 的剧情介绍……

上世纪七十年代,在中国还没有全面开放之时,来自意大利、法国、美国和日本的四位纪录片大师不约而同地来到中国,用镜头记录下了中国和中国人生活的方方面面,留下了四部轰动世界的纪录影像——《中国》(意大利)、《愚公移山》(法国)、《从毛泽东到莫扎特》(美国)、《上海新风》(日本)。这些影像,不仅让世界第一次大范围了解中国,也为中国人回顾历史、回忆父辈祖辈,留下了宝贵的财富。四十年过去了,中国发生了哪些变化?影像中出现过的那些普通人,还能否寻觅?
  今天,同样是来自意大利、法国、美国和日本的四位国际友人,再次来到中国。曾经的影像,让他们第一次模模糊糊地认识了中国,此刻,他们决定用自己的双眼,看看如今的中国,发生了那些巨变。难能可贵的是,他们重新找到了那些出现在过去影像中的普通人,通过贴近的观察、真实的记录,将中国四十多年的变化自然呈现在眼前。
  我们用一部五集纪录片,一年的时间,记录下了四位寻访人的探索中国历程,在新、旧画面之间的切换自然流露出岁月的力量,巨大的变迁,就在这看似不经意的巧妙变换中,让人感慨、深思。
资源下载
1080i/p下载地址 点击查看
4K下载地址 点击查看
《从《中国》到中国》下载帮助和注意事项:
1、本站所有资源均为磁力链资源,无需注册登录即可查看下载地址
2、使用迅雷或网盘离线是无法下载资源的!必须使用BT下载工具,如果没有下载速度请添加我们提供的tracker服务器列表
3、推荐BT下载工具:比特彗星qbittorrentutorrent 内网使用路由请做好端口映射或开启UPnP
4、不管选择哪种P2P下载工具,都希望你能在条件允许的前提下不要限速多做种分享上传一段时间
5、刻意限制P2P下载工具的上传速度(此行为俗称:吸血)将影响你的下载速度 防止被吸血和防止运营商过滤的教程
6、人人为我我为人人,只有大家不限制上传速度,大家才能共同获得更快的下载速度,这才是P2P应有的良性循环!
7、所有资源来源网络,本站服务器不存储任何种子文件,如侵犯您的权益,请联系 [email protected] 删除资源
点评&资源版本介绍
 
从《中国》到中国.E01 大海战2 硬核RTS海战游戏-画面党手残党慎入.jpg
General
Format                         : MPEG-4
Format profile                 : Base Media
Codec ID                       : isom (isom/iso2/avc1/mp41)
File size                      : 947 MiB
Duration                       : 47 min 0 s
Overall bit rate mode          : Variable
Overall bit rate               : 2 817 kb/s
Writing application            : Lavf58.10.100

Video
ID                             : 1
Format                         : AVC
Format/Info                    : Advanced Video Codec
Format profile                 : [email protected]
Format settings                : CABAC / 3 Ref Frames
Format settings, CABAC         : Yes
Format settings, Reference fra : 3 frames
Codec ID                       : avc1
Codec ID/Info                  : Advanced Video Coding
Duration                       : 46 min 59 s
Bit rate                       : 2 621 kb/s
Width                          : 1 920 pixels
Height                         : 1 080 pixels
Display aspect ratio           : 16:9
Frame rate mode                : Constant
Frame rate                     : 25.000 FPS
Color space                    : YUV
Chroma subsampling             : 4:2:0
Bit depth                      : 8 bits
Scan type                      : Progressive
Bits/(Pixel*Frame)             : 0.051
Stream size                    : 881 MiB (93%)
Color range                    : Limited
Color primaries                : BT.709
Transfer characteristics       : BT.709
Matrix coefficients            : BT.709
Codec configuration box        : avcC

Audio
ID                             : 2
Format                         : AAC LC
Format/Info                    : Advanced Audio Codec Low Complexity
Codec ID                       : mp4a-40-2
Duration                       : 47 min 0 s
Bit rate mode                  : Variable
Bit rate                       : 192 kb/s
Maximum bit rate               : 197 kb/s
Channel(s)                     : 2 channels
Channel layout                 : L R
Sampling rate                  : 44.1 kHz
Frame rate                     : 43.066 FPS (1024 SPF)
Compression mode               : Lossy
Stream size                    : 63.8 MiB (7%)
Default                        : Yes
Alternate group                : 1


分享快乐!
回复

使用道具 举报

 
您需要登录后才可以回帖 登录 | 立即注册

本版积分规则

0关注

11粉丝

838帖子

广告位
经典RPG武侠手游,安卓首发。
  • 版块推荐
  • 百宝箱
推荐阅读更多+
会员达人更多+
广告位
经典RPG武侠手游,安卓首发。

信息推荐

更多+

最新信息

更多+

加入我们!分享快乐!

人人为我,我为人人!抵制吸血和收费分享行为!

从我做起!

只分享高品质影视资源

只求质量、不求数量、不抢首发!

Email:[email protected]

DHTCLUB - 高品质影视资源分享俱乐部