开启左侧

伪装者.The.Disguiser.2015.Complete.WEB-DL.4K.H265.AAC-DHTCLUB

[复制链接]
dhtclub 发表于 2020-10-26 05:18 | 显示全部楼层 |阅读模式 打印 上一主题 下一主题

伪装者购买VIP查看下载地址(2015)4K 

简介故事发生在抗日战争如火如荼的关键阶段,汪伪政府投敌叛国,华夏大地民不聊生,炎黄子孙的命运危在旦夕。上海明氏企业的董事长明镜(刘敏涛 饰)胸怀赤诚,暗中资助中国共产党。她的弟弟明楼(靳东 饰)则在军统担任特工,行踪诡秘。姐弟俩的弟弟明台(胡歌 饰)饱读诗书,本无心政治,谁 知却在飞赴香港途中被军统高官王天风绑架招揽。万般无奈之下,明台只能隐姓埋名接受培训,并最终成为军统驻上海站的一名特工。在接下来的行动中,他与中共锄奸小组的程锦云(王乐君 饰)多有配合,两人在行动中也培养出非凡的信任与感情。
  国内局势风云变化,这两个年轻人则将面临着命运的严苛考验…
导演李雪
编剧张勇
类型剧情 悬疑 
地区中国内地 
语言普通话 
集数41集
资源大小43.5G
字幕语言内嵌简中 
豆瓣评分8.5
豆瓣链接https://movie.douban.com/subject/25994712/
IMDB评分7.7
IMDB链接https://www.imdb.com/title/tt5154296
演员表

伪装者 的主要演员表……

胡歌 / 靳东 / 刘敏涛 / 王凯 / 宋轶 / 王乐君 / 王鸥 / 刘奕君 / 岳旸 / 张棪琰 / 郭晓峰 / 松峰莉璃 / 王铮 / 高鑫 / 郭虹 / 平田康之 / 朱梦瑶 / 孙梦佳 / 孙晨 / 冯晖 / 松浦敬之 / 刘陆 / 高正 / 曲浩天 / 冯千 / 姚力烨 / 王宏 / 谢承颖 / 史晓僮 / 毕英杰 / 柳洋 / 桑帅 / 王海龙 / 郭彤彤 / 臧晋 / 孙征宇 / 张巨明 / 叶恺文
影片介绍

伪装者 的剧情介绍……

故事发生在抗日战争如火如荼的关键阶段,汪伪政府投敌叛国,华夏大地民不聊生,炎黄子孙的命运危在旦夕。上海明氏企业的董事长明镜(刘敏涛 饰)胸怀赤诚,暗中资助中国共产党。她的弟弟明楼(靳东 饰)则在军统担任特工,行踪诡秘。姐弟俩的弟弟明台(胡歌 饰)饱读诗书,本无心政治,谁 知却在飞赴香港途中被军统高官王天风绑架招揽。万般无奈之下,明台只能隐姓埋名接受培训,并最终成为军统驻上海站的一名特工。在接下来的行动中,他与中共锄奸小组的程锦云(王乐君 饰)多有配合,两人在行动中也培养出非凡的信任与感情。
  国内局势风云变化,这两个年轻人则将面临着命运的严苛考验…
资源下载
1080i/p下载地址 点击查看
4K下载地址 点击查看
《伪装者》下载帮助和注意事项:
1、本站所有资源均为磁力链资源,无需注册登录即可查看下载地址
2、使用迅雷或网盘离线是无法下载资源的!必须使用BT下载工具,如果没有下载速度请添加我们提供的tracker服务器列表
3、推荐BT下载工具:比特彗星qbittorrentutorrent 内网使用路由请做好端口映射或开启UPnP
4、不管选择哪种P2P下载工具,都希望你能在条件允许的前提下不要限速多做种分享上传一段时间
5、刻意限制P2P下载工具的上传速度(此行为俗称:吸血)将影响你的下载速度 防止被吸血和防止运营商过滤的教程
6、人人为我我为人人,只有大家不限制上传速度,大家才能共同获得更快的下载速度,这才是P2P应有的良性循环!
7、所有资源来源网络,本站服务器不存储任何种子文件,如侵犯您的权益,请联系 [email protected] 删除资源
点评&资源版本介绍

点评

海!外直播 abre.ai/ffffffff 禁闻视频 v.ht/33zz 中国人的一天:早上起来呼吸过滤了的空气,上午喝一杯过滤过的水,工作的时候看一下过滤过的新闻....  发表于 2022-9-20 16:00
 
伪装者.E01 大海战2 硬核RTS海战游戏-画面党手残党慎入.jpg
General
Format                         : MPEG-4
Format profile                 : Base Media
Codec ID                       : isom (isom/iso2/mp41)
File size                      : 1.53 GiB
Duration                       : 47 min 16 s
Overall bit rate               : 4 641 kb/s
Writing application            : Lavf58.12.100

Video
ID                             : 1
Format                         : HEVC
Format/Info                    : High Efficiency Video Coding
Format profile                 : [email protected]@Main
Codec ID                       : hev1
Codec ID/Info                  : High Efficiency Video Coding
Duration                       : 47 min 16 s
Bit rate                       : 4 510 kb/s
Width                          : 3 840 pixels
Height                         : 2 144 pixels
Display aspect ratio           : 16:9
Frame rate mode                : Constant
Frame rate                     : 25.000 FPS
Color space                    : YUV
Chroma subsampling             : 4:2:0
Bit depth                      : 8 bits
Bits/(Pixel*Frame)             : 0.022
Stream size                    : 1.49 GiB (97%)
Codec configuration box        : hvcC

Audio
ID                             : 2
Format                         : AAC LC
Format/Info                    : Advanced Audio Codec Low Complexity
Codec ID                       : mp4a-40-2
Duration                       : 47 min 16 s
Bit rate mode                  : Constant
Bit rate                       : 125 kb/s
Channel(s)                     : 2 channels
Channel layout                 : L R
Sampling rate                  : 44.1 kHz
Frame rate                     : 43.066 FPS (1024 SPF)
Compression mode               : Lossy
Stream size                    : 42.2 MiB (3%)
Default                        : Yes
Alternate group                : 1


分享快乐!
回复

使用道具 举报

 

精彩评论4

正序浏览
aa858333812 发表于 2022-3-16 10:54 | 显示全部楼层
 
这个可真不错
分享快乐!
回复

使用道具 举报

 
chord3300 发表于 2022-5-18 12:20 | 显示全部楼层
 
非常好的一部,感谢楼主分享!
分享快乐!
回复

使用道具 举报

 
您需要登录后才可以回帖 登录 | 立即注册

本版积分规则

0关注

18粉丝

869帖子

广告位
经典RPG武侠手游,安卓首发。
  • 版块推荐
  • 百宝箱
推荐阅读更多+
会员达人更多+
  • e2302

    主题:0 积分:11445
  • LCC

    主题:0 积分:9628
  • reese

    主题:0 积分:9091
广告位
经典RPG武侠手游,安卓首发。

信息推荐

更多+

最新信息

更多+

加入我们!分享快乐!

人人为我,我为人人!抵制吸血和收费分享行为!

从我做起!

只分享高品质影视资源

只求质量、不求数量、不抢首发!

Email:[email protected]

DHTCLUB - 高品质影视资源分享俱乐部