开启左侧

周游记.J-Style.Trip.S01.1080p.NF.WEB-DL.DDP2.0.x264-DHTCLUB

[复制链接]
dhtclub 发表于 2020-10-30 04:30 | 显示全部楼层 |阅读模式 打印 上一主题 下一主题

周游记购买VIP查看下载地址(2020)1080P 

简介遇见魔力,看见奇迹,期待与你奇妙相遇!
  周杰伦的朋友全情参与,林俊杰、萧敬腾、谢霆锋、郎朗、陈建州等将和周杰伦一起周游世界,每个城市一首周杰伦歌曲,全程无脚本拍摄,魔术技能大秀,去巴黎解码 《告白气球》,去新加坡看林俊杰《听妈妈的话》,和谢霆锋富士山下看《最长的电影》…
导演徐义清
编剧崔明慧
类型真人秀 
地区中国内地 中国台湾 
语言普通话 
集数6集
资源大小20.8G
字幕语言内嵌简中 内嵌繁中 内嵌英语 
豆瓣评分6.8
豆瓣链接https://movie.douban.com/subject/34840740/
IMDB评分升级VIP查看密码
IMDB链接https://www.imdb.com/title/tt11942052/
演员表

周游记 的主要演员表……

周杰伦 / 杜国璋 / 陈冠霖 / 蔡威泽 / 林俊杰 / 萧敬腾 / 谢霆锋 / 郎朗 / 陈建州
影片介绍

周游记 的剧情介绍……

遇见魔力,看见奇迹,期待与你奇妙相遇!
  周杰伦的朋友全情参与,林俊杰、萧敬腾、谢霆锋、郎朗、陈建州等将和周杰伦一起周游世界,每个城市一首周杰伦歌曲,全程无脚本拍摄,魔术技能大秀,去巴黎解码 《告白气球》,去新加坡看林俊杰《听妈妈的话》,和谢霆锋富士山下看《最长的电影》…
资源下载
1080i/p下载地址 点击查看
4K下载地址 点击查看
《周游记》下载帮助和注意事项:
1、本站所有资源均为磁力链资源,无需注册登录即可查看下载地址
2、使用迅雷或网盘离线是无法下载资源的!必须使用BT下载工具,如果没有下载速度请添加我们提供的tracker服务器列表
3、推荐BT下载工具:比特彗星qbittorrentutorrent 内网使用路由请做好端口映射或开启UPnP
4、不管选择哪种P2P下载工具,都希望你能在条件允许的前提下不要限速多做种分享上传一段时间
5、刻意限制P2P下载工具的上传速度(此行为俗称:吸血)将影响你的下载速度 防止被吸血和防止运营商过滤的教程
6、人人为我我为人人,只有大家不限制上传速度,大家才能共同获得更快的下载速度,这才是P2P应有的良性循环!
7、所有资源来源网络,本站服务器不存储任何种子文件,如侵犯您的权益,请联系 [email protected] 删除资源
点评&资源版本介绍
 
周游记.E01 大海战2 硬核RTS海战游戏-画面党手残党慎入.jpg
General
Unique ID                      : 7440576959574571827517763749498793331 (0x59900C46940D6ABD73148C0735F2D73)
Format                         : Matroska
Format version                 : Version 4
File size                      : 2.82 GiB
Duration                       : 1 h 3 min
Overall bit rate mode          : Variable
Overall bit rate               : 6 311 kb/s
Encoded date                   : UTC 2001-01-01 00:00:00
Writing application            : mkvmerge v34.0.0 ('Sight and Seen') 64-bit
Writing library                : libebml v1.3.9 + libmatroska v1.5.2

Video
ID                             : 1
Format                         : AVC
Format/Info                    : Advanced Video Codec
Format profile                 : [email protected]
Format settings                : CABAC / 3 Ref Frames
Format settings, CABAC         : Yes
Format settings, Reference fra : 3 frames
Codec ID                       : V_MPEG4/ISO/AVC
Duration                       : 1 h 3 min
Bit rate mode                  : Variable
Bit rate                       : 6 190 kb/s
Maximum bit rate               : 9 285 kb/s
Width                          : 1 920 pixels
Height                         : 1 080 pixels
Display aspect ratio           : 16:9
Frame rate mode                : Constant
Frame rate                     : 25.000 FPS
Color space                    : YUV
Chroma subsampling             : 4:2:0
Bit depth                      : 8 bits
Scan type                      : Progressive
Bits/(Pixel*Frame)             : 0.119
Stream size                    : 2.76 GiB (98%)
Writing library                : x264 core 148 r2717 0d2410d
Encoding settings              : cabac=1 / ref=3 / deblock=1:0:0 / analyse=0x1:0x111 / me=umh / subme=10 / psy=1 / psy_rd=1.00:0.00 / mixed_ref=1 / me_range=24 / chroma_me=1 / trellis=2 / 8x8dct=0 / cqm=0 / deadzone=21,11 / fast_pskip=1 / chroma_qp_offset=-2 / threads=6 / lookahead_threads=1 / sliced_threads=0 / nr=0 / decimate=1 / interlaced=0 / bluray_compat=0 / stitchable=1 / constrained_intra=0 / bframes=2 / b_pyramid=0 / b_adapt=2 / b_bias=0 / direct=3 / weightb=1 / open_gop=0 / weightp=2 / keyint=250 / keyint_min=25 / scenecut=0 / intra_refresh=0 / rc_lookahead=50 / rc=2pass / mbtree=1 / bitrate=6190 / ratetol=1.0 / qcomp=0.50 / qpmin=6 / qpmax=51 / qpstep=4 / cplxblur=20.0 / qblur=0.5 / vbv_maxrate=9285 / vbv_bufsize=12380 / nal_hrd=vbr / filler=0 / ip_ratio=1.40 / aq=1:1.00
Default                        : Yes
Forced                         : No

Audio
ID                             : 2
Format                         : E-AC-3
Format/Info                    : Enhanced AC-3
Commercial name                : Dolby Digital Plus
Codec ID                       : A_EAC3
Duration                       : 1 h 3 min
Bit rate mode                  : Constant
Bit rate                       : 128 kb/s
Channel(s)                     : 2 channels
Channel layout                 : L R
Sampling rate                  : 48.0 kHz
Frame rate                     : 31.250 FPS (1536 SPF)
Compression mode               : Lossy
Stream size                    : 58.5 MiB (2%)
Title                          : Mandarin [Original]
Language                       : Chinese
Service kind                   : Complete Main
Default                        : Yes
Forced                         : No

Text #1
ID                             : 3
Format                         : UTF-8
Codec ID                       : S_TEXT/UTF8
Codec ID/Info                  : UTF-8 Plain Text
Duration                       : 1 h 3 min
Bit rate                       : 121 b/s
Count of elements              : 1698
Stream size                    : 56.7 KiB (0%)
Title                          : Simplified Chinese
Language                       : Chinese
Default                        : No
Forced                         : No

Text #2
ID                             : 4
Format                         : UTF-8
Codec ID                       : S_TEXT/UTF8
Codec ID/Info                  : UTF-8 Plain Text
Duration                       : 1 h 3 min
Bit rate                       : 103 b/s
Count of elements              : 1607
Stream size                    : 48.2 KiB (0%)
Title                          : Simplified Chinese
Language                       : Chinese
Default                        : No
Forced                         : No

Text #3
ID                             : 5
Format                         : UTF-8
Codec ID                       : S_TEXT/UTF8
Codec ID/Info                  : UTF-8 Plain Text
Duration                       : 1 h 3 min
Bit rate                       : 41 b/s
Count of elements              : 588
Stream size                    : 19.4 KiB (0%)
Title                          : Forced
Language                       : Chinese
Default                        : No
Forced                         : Yes

Text #4
ID                             : 6
Format                         : UTF-8
Codec ID                       : S_TEXT/UTF8
Codec ID/Info                  : UTF-8 Plain Text
Duration                       : 1 h 3 min
Bit rate                       : 120 b/s
Count of elements              : 1570
Stream size                    : 56.2 KiB (0%)
Title                          : Traditional Chinese
Language                       : Chinese
Default                        : No
Forced                         : No

Text #5
ID                             : 7
Format                         : UTF-8
Codec ID                       : S_TEXT/UTF8
Codec ID/Info                  : UTF-8 Plain Text
Duration                       : 1 h 3 min
Bit rate                       : 91 b/s
Count of elements              : 1403
Stream size                    : 42.7 KiB (0%)
Title                          : Traditional Chinese
Language                       : Chinese
Default                        : No
Forced                         : No

Text #6
ID                             : 8
Format                         : UTF-8
Codec ID                       : S_TEXT/UTF8
Codec ID/Info                  : UTF-8 Plain Text
Duration                       : 1 h 3 min
Bit rate                       : 160 b/s
Count of elements              : 1560
Stream size                    : 74.9 KiB (0%)
Title                          : Arabic
Language                       : Arabic
Default                        : No
Forced                         : No

Text #7
ID                             : 9
Format                         : UTF-8
Codec ID                       : S_TEXT/UTF8
Codec ID/Info                  : UTF-8 Plain Text
Duration                       : 1 h 3 min
Bit rate                       : 90 b/s
Count of elements              : 1519
Stream size                    : 42.1 KiB (0%)
Title                          : Danish
Language                       : Danish
Default                        : No
Forced                         : No

Text #8
ID                             : 10
Format                         : UTF-8
Codec ID                       : S_TEXT/UTF8
Codec ID/Info                  : UTF-8 Plain Text
Duration                       : 1 h 3 min
Bit rate                       : 90 b/s
Count of elements              : 1536
Stream size                    : 42.4 KiB (0%)
Title                          : German
Language                       : German
Default                        : No
Forced                         : No

Text #9
ID                             : 11
Format                         : UTF-8
Codec ID                       : S_TEXT/UTF8
Codec ID/Info                  : UTF-8 Plain Text
Duration                       : 1 h 3 min
Bit rate                       : 153 b/s
Count of elements              : 1556
Stream size                    : 71.5 KiB (0%)
Title                          : Greek
Language                       : Greek
Default                        : No
Forced                         : No

Text #10
ID                             : 12
Format                         : UTF-8
Codec ID                       : S_TEXT/UTF8
Codec ID/Info                  : UTF-8 Plain Text
Duration                       : 1 h 3 min
Bit rate                       : 74 b/s
Count of elements              : 1377
Stream size                    : 34.5 KiB (0%)
Title                          : English
Language                       : English
Default                        : Yes
Forced                         : No

Text #11
ID                             : 13
Format                         : UTF-8
Codec ID                       : S_TEXT/UTF8
Codec ID/Info                  : UTF-8 Plain Text
Duration                       : 1 h 3 min
Bit rate                       : 84 b/s
Count of elements              : 1540
Stream size                    : 39.6 KiB (0%)
Title                          : Spanish
Language                       : Spanish
Default                        : No
Forced                         : No

Text #12
ID                             : 14
Format                         : UTF-8
Codec ID                       : S_TEXT/UTF8
Codec ID/Info                  : UTF-8 Plain Text
Duration                       : 1 h 3 min
Bit rate                       : 88 b/s
Count of elements              : 1537
Stream size                    : 41.5 KiB (0%)
Title                          : European Spanish
Language                       : Spanish
Default                        : No
Forced                         : No

Text #13
ID                             : 15
Format                         : UTF-8
Codec ID                       : S_TEXT/UTF8
Codec ID/Info                  : UTF-8 Plain Text
Duration                       : 1 h 3 min
Bit rate                       : 88 b/s
Count of elements              : 1538
Stream size                    : 41.3 KiB (0%)
Title                          : Finnish
Language                       : Finnish
Default                        : No
Forced                         : No

Text #14
ID                             : 16
Format                         : UTF-8
Codec ID                       : S_TEXT/UTF8
Codec ID/Info                  : UTF-8 Plain Text
Duration                       : 1 h 3 min
Bit rate                       : 86 b/s
Count of elements              : 1519
Stream size                    : 40.6 KiB (0%)
Title                          : French
Language                       : French
Default                        : No
Forced                         : No

Text #15
ID                             : 17
Format                         : UTF-8
Codec ID                       : S_TEXT/UTF8
Codec ID/Info                  : UTF-8 Plain Text
Duration                       : 1 h 3 min
Bit rate                       : 144 b/s
Count of elements              : 1550
Stream size                    : 67.1 KiB (0%)
Title                          : Hebrew
Language                       : Hebrew
Default                        : No
Forced                         : No

Text #16
ID                             : 18
Format                         : UTF-8
Codec ID                       : S_TEXT/UTF8
Codec ID/Info                  : UTF-8 Plain Text
Duration                       : 1 h 3 min
Bit rate                       : 89 b/s
Count of elements              : 1542
Stream size                    : 41.7 KiB (0%)
Title                          : Indonesian
Language                       : Indonesian
Default                        : No
Forced                         : No

Text #17
ID                             : 19
Format                         : UTF-8
Codec ID                       : S_TEXT/UTF8
Codec ID/Info                  : UTF-8 Plain Text
Duration                       : 1 h 3 min
Bit rate                       : 82 b/s
Count of elements              : 1538
Stream size                    : 38.7 KiB (0%)
Title                          : Italian
Language                       : Italian
Default                        : No
Forced                         : No

Text #18
ID                             : 20
Format                         : UTF-8
Codec ID                       : S_TEXT/UTF8
Codec ID/Info                  : UTF-8 Plain Text
Duration                       : 1 h 3 min
Bit rate                       : 113 b/s
Count of elements              : 1619
Stream size                    : 52.7 KiB (0%)
Title                          : Japanese
Language                       : Japanese
Default                        : No
Forced                         : No

Text #19
ID                             : 21
Format                         : UTF-8
Codec ID                       : S_TEXT/UTF8
Codec ID/Info                  : UTF-8 Plain Text
Duration                       : 1 h 3 min
Bit rate                       : 110 b/s
Count of elements              : 1551
Stream size                    : 51.3 KiB (0%)
Title                          : Korean
Language                       : Korean
Default                        : No
Forced                         : No

Text #20
ID                             : 22
Format                         : UTF-8
Codec ID                       : S_TEXT/UTF8
Codec ID/Info                  : UTF-8 Plain Text
Duration                       : 1 h 3 min
Bit rate                       : 95 b/s
Count of elements              : 1563
Stream size                    : 44.6 KiB (0%)
Title                          : Malay
Language                       : Malay
Default                        : No
Forced                         : No

Text #21
ID                             : 23
Format                         : UTF-8
Codec ID                       : S_TEXT/UTF8
Codec ID/Info                  : UTF-8 Plain Text
Duration                       : 1 h 3 min
Bit rate                       : 88 b/s
Count of elements              : 1529
Stream size                    : 41.1 KiB (0%)
Title                          : Dutch
Language                       : Dutch
Default                        : No
Forced                         : No

Text #22
ID                             : 24
Format                         : UTF-8
Codec ID                       : S_TEXT/UTF8
Codec ID/Info                  : UTF-8 Plain Text
Duration                       : 1 h 3 min
Bit rate                       : 75 b/s
Count of elements              : 1362
Stream size                    : 35.4 KiB (0%)
Title                          : Polish
Language                       : Polish
Default                        : No
Forced                         : No

Text #23
ID                             : 25
Format                         : UTF-8
Codec ID                       : S_TEXT/UTF8
Codec ID/Info                  : UTF-8 Plain Text
Duration                       : 1 h 3 min
Bit rate                       : 91 b/s
Count of elements              : 1526
Stream size                    : 42.7 KiB (0%)
Title                          : Portuguese
Language                       : Portuguese
Default                        : No
Forced                         : No

Text #24
ID                             : 26
Format                         : UTF-8
Codec ID                       : S_TEXT/UTF8
Codec ID/Info                  : UTF-8 Plain Text
Duration                       : 1 h 3 min
Bit rate                       : 88 b/s
Count of elements              : 1534
Stream size                    : 41.3 KiB (0%)
Title                          : Brazilian Portuguese
Language                       : Portuguese
Default                        : No
Forced                         : No

Text #25
ID                             : 27
Format                         : UTF-8
Codec ID                       : S_TEXT/UTF8
Codec ID/Info                  : UTF-8 Plain Text
Duration                       : 1 h 3 min
Bit rate                       : 105 b/s
Count of elements              : 1533
Stream size                    : 49.2 KiB (0%)
Title                          : Romanian
Language                       : Romanian
Default                        : No
Forced                         : No

Text #26
ID                             : 28
Format                         : UTF-8
Codec ID                       : S_TEXT/UTF8
Codec ID/Info                  : UTF-8 Plain Text
Duration                       : 1 h 3 min
Bit rate                       : 84 b/s
Count of elements              : 1542
Stream size                    : 39.6 KiB (0%)
Title                          : Swedish
Language                       : Swedish
Default                        : No
Forced                         : No

Text #27
ID                             : 29
Format                         : UTF-8
Codec ID                       : S_TEXT/UTF8
Codec ID/Info                  : UTF-8 Plain Text
Duration                       : 1 h 3 min
Bit rate                       : 235 b/s
Count of elements              : 1561
Stream size                    : 110 KiB (0%)
Title                          : Thai
Language                       : Thai
Default                        : No
Forced                         : No

Text #28
ID                             : 30
Format                         : UTF-8
Codec ID                       : S_TEXT/UTF8
Codec ID/Info                  : UTF-8 Plain Text
Duration                       : 1 h 3 min
Bit rate                       : 87 b/s
Count of elements              : 1543
Stream size                    : 40.8 KiB (0%)
Title                          : Turkish
Language                       : Turkish
Default                        : No
Forced                         : No

Text #29
ID                             : 31
Format                         : UTF-8
Codec ID                       : S_TEXT/UTF8
Codec ID/Info                  : UTF-8 Plain Text
Duration                       : 1 h 3 min
Bit rate                       : 131 b/s
Count of elements              : 1530
Stream size                    : 61.2 KiB (0%)
Title                          : Vietnamese
Language                       : Vietnamese
Default                        : No
Forced                         : No


分享快乐!
回复

使用道具 举报

 
您需要登录后才可以回帖 登录 | 立即注册

本版积分规则

0关注

11粉丝

838帖子

广告位
经典RPG武侠手游,安卓首发。
  • 版块推荐
  • 百宝箱
推荐阅读更多+
会员达人更多+
广告位
经典RPG武侠手游,安卓首发。

信息推荐

更多+

最新信息

更多+

加入我们!分享快乐!

人人为我,我为人人!抵制吸血和收费分享行为!

从我做起!

只分享高品质影视资源

只求质量、不求数量、不抢首发!

Email:[email protected]

DHTCLUB - 高品质影视资源分享俱乐部