开启左侧

遗落战境.Oblivion.2013.UltraHD.BluRay.4K.2160p.HEVC.DTS-HD.MA 7.1-DHTCLUB

[复制链接]
dhtclub 发表于 2020-3-5 04:22 | 显示全部楼层 |阅读模式 打印 上一主题 下一主题

遗落战境Oblivion / 攻·元2077(港) / 遗忘星球 / 地平线 / 遗忘(2013~2011)4K 

简介2017年,母星遭到毁灭的外星流亡者入侵地球。人类虽然用核武器打败对手,但也付出失去家园的惨痛代价。在接下来将近半个世纪的时光中,人类移民泰坦星(土卫六),不过仍有极少部分人类留在故土,扫荡残存的外星掠夺者。杰克·哈珀(汤姆·克鲁斯 Tom Cruise 饰)与维多利亚(安德丽亚·瑞斯波罗格 Andrea Riseborough 饰)即是留守者中的一员,他们的主要任务为保障遍布各地守护水萃取塔的无人机正常运行。看似永无止境的任务终于接近尾声,而就在此刻,不明飞行器坠落一处无人区。杰克在当地发现数名人类伤员,可是他们却遭到无人机的屠杀。危急时刻,杰克救下了一个名为茱莉亚(欧嘉·柯瑞兰寇 Olga Kurylenko 饰)的女子。
  这一事件令杰克无意中知晓了掠夺者以及自身背后隐藏的秘密…
导演约瑟夫·科辛斯基
编剧约瑟夫·科辛斯基 / 卡尔·盖杜谢克 / 迈克尔·阿恩特
类型动作 科幻 悬疑 冒险 
地区美国 
语言英语 
时长124分钟
资源大小58.2G
字幕语言内嵌简中英双语 
豆瓣评分7.0
豆瓣链接https://movie.douban.com/subject/3895511
IMDB评分7.0
IMDB链接https://www.imdb.com/title/tt1483013
演员表

遗落战境 的主要演员表……

汤姆·克鲁斯 / 摩根·弗里曼 / 欧嘉·柯瑞兰寇 / 尼古拉·科斯特-瓦尔道 / 佐伊·贝尔 / 梅丽莎·里奥 / 安德丽亚·瑞斯波罗格
影片介绍

遗落战境 的剧情介绍……

2017年,母星遭到毁灭的外星流亡者入侵地球。人类虽然用核武器打败对手,但也付出失去家园的惨痛代价。在接下来将近半个世纪的时光中,人类移民泰坦星(土卫六),不过仍有极少部分人类留在故土,扫荡残存的外星掠夺者。杰克·哈珀(汤姆·克鲁斯 Tom Cruise 饰)与维多利亚(安德丽亚·瑞斯波罗格 Andrea Riseborough 饰)即是留守者中的一员,他们的主要任务为保障遍布各地守护水萃取塔的无人机正常运行。看似永无止境的任务终于接近尾声,而就在此刻,不明飞行器坠落一处无人区。杰克在当地发现数名人类伤员,可是他们却遭到无人机的屠杀。危急时刻,杰克救下了一个名为茱莉亚(欧嘉·柯瑞兰寇 Olga Kurylenko 饰)的女子。
  这一事件令杰克无意中知晓了掠夺者以及自身背后隐藏的秘密…
资源下载
1080i/p下载地址 点击查看
4K下载地址 点击查看
《遗落战境》下载帮助和注意事项:
1、本站所有资源均为磁力链资源,无需注册登录即可查看下载地址
2、使用迅雷或网盘离线是无法下载资源的!必须使用BT下载工具,如果没有下载速度请添加我们提供的tracker服务器列表
3、推荐BT下载工具:比特彗星qbittorrentutorrent 内网使用路由请做好端口映射或开启UPnP
4、不管选择哪种P2P下载工具,都希望你能在条件允许的前提下不要限速多做种分享上传一段时间
5、刻意限制P2P下载工具的上传速度(此行为俗称:吸血)将影响你的下载速度 防止被吸血和防止运营商过滤的教程
6、人人为我我为人人,只有大家不限制上传速度,大家才能共同获得更快的下载速度,这才是P2P应有的良性循环!
7、所有资源来源网络,本站服务器不存储任何种子文件,如侵犯您的权益,请联系 [email protected] 删除资源
点评&资源版本介绍

点评

海!外直播 abre.ai/jzzz 禁闻视频 v.ht/c999 正常国家的新闻特点是:“因为没发生,所以不报导。”中国的新闻特点是:“因为不报导,所以没发生。” 看看真实的  发表于 2022-9-20 16:01
 
遗落战境.Oblivion.2013.UltraHD.BluRay.4K.2160p.HEVC.DTS-HD.MA 7.1-DHTCLUB.jpg
General
Unique ID                      : 267095696554829553717297498734373871104 (0xC8F0C28F7025838A9692A7B3F72F9E00)
Format                         : Matroska
Format version                 : Version 4
File size                      : 57.3 GiB
Duration                       : 2 h 4 min
Overall bit rate mode          : Variable
Overall bit rate               : 65.7 Mb/s
Encoded date                   : UTC 2020-03-04 18:36:50
Writing application            : mkvmerge v43.0.0 ('The Quartermaster') 64-bit
Writing library                : libebml v1.3.10 + libmatroska v1.5.2

Video
ID                             : 1
Format                         : HEVC
Format/Info                    : High Efficiency Video Coding
Format profile                 : Main [email protected]@High
HDR format                     : SMPTE ST 2086, HDR10 compatible
Codec ID                       : V_MPEGH/ISO/HEVC
Duration                       : 2 h 4 min
Bit rate                       : 60.1 Mb/s
Width                          : 3 840 pixels
Height                         : 2 160 pixels
Display aspect ratio           : 16:9
Frame rate mode                : Constant
Frame rate                     : 23.976 (24000/1001) FPS
Color space                    : YUV
Chroma subsampling             : 4:2:0 (Type 1)
Bit depth                      : 10 bits
Bits/(Pixel*Frame)             : 0.302
Stream size                    : 52.3 GiB (91%)
Writing library                : x265 2.0+18-b0ec268aef60:[Windows][GCC 6.1.0][64 bit] 10bit
Encoding settings              : wpp / ctu=64 / min-cu-size=8 / max-tu-size=32 / tu-intra-depth=1 / tu-inter-depth=1 / me=1 / subme=2 / merange=57 / no-rect / no-amp / max-merge=2 / temporal-mvp / no-early-skip / rskip / rdpenalty=0 / no-tskip / no-tskip-fast / strong-intra-smoothing / no-lossless / no-cu-lossless / no-constrained-intra / no-fast-intra / open-gop / no-temporal-layers / interlace=0 / keyint=250 / min-keyint=23 / scenecut=40 / rc-lookahead=20 / lookahead-slices=8 / bframes=4 / bframe-bias=0 / b-adapt=2 / ref=3 / limit-refs=3 / no-limit-modes / weightp / no-weightb / aq-mode=1 / qg-size=32 / aq-strength=1.00 / cbqpoffs=0 / crqpoffs=0 / rd=3 / psy-rd=2.00 / rdoq-level=0 / psy-rdoq=0.00 / log2-max-poc-lsb=8 / no-rd-refine / signhide / deblock=0:0 / sao / no-sao-non-deblock / b-pyramid / cutree / no-intra-refresh / rc=abr / bitrate=61000 / qcomp=0.60 / qpmin=0 / qpmax=69 / qpstep=1 / vbv-maxrate=160000 / vbv-bufsize=160000 / ipratio=1.40 / pbratio=1.30
Default                        : Yes
Forced                         : No
Color range                    : Limited
Color primaries                : BT.2020
Transfer characteristics       : PQ
Matrix coefficients            : BT.2020 non-constant
Mastering display color primar : Display P3
Mastering display luminance    : min: 0.0001 cd/m2, max: 1000 cd/m2
Maximum Content Light Level    : 1000 cd/m2
Maximum Frame-Average Light Le : 500 cd/m2

Audio #1
ID                             : 2
Format                         : DTS XLL
Format/Info                    : Digital Theater Systems
Commercial name                : DTS-HD Master Audio
Codec ID                       : A_DTS
Duration                       : 2 h 4 min
Bit rate mode                  : Variable
Bit rate                       : 5 033 kb/s
Channel(s)                     : 8 channels
Channel layout                 : C L R LFE Lb Rb Lss Rss
Sampling rate                  : 48.0 kHz
Frame rate                     : 93.750 FPS (512 SPF)
Bit depth                      : 24 bits
Compression mode               : Lossless
Delay relative to video        : 2 s 500 ms
Stream size                    : 4.38 GiB (8%)
Language                       : English
Default                        : Yes
Forced                         : No

Audio #2
ID                             : 3
Format                         : AC-3
Format/Info                    : Audio Coding 3
Commercial name                : Dolby Digital
Codec ID                       : A_AC3
Duration                       : 2 h 4 min
Bit rate mode                  : Constant
Bit rate                       : 640 kb/s
Channel(s)                     : 6 channels
Channel layout                 : L R C LFE Ls Rs
Sampling rate                  : 48.0 kHz
Frame rate                     : 31.250 FPS (1536 SPF)
Bit depth                      : 16 bits
Compression mode               : Lossy
Delay relative to video        : 2 s 500 ms
Stream size                    : 571 MiB (1%)
Language                       : English
Service kind                   : Complete Main
Default                        : No
Forced                         : No

Text
ID                             : 4
Format                         : UTF-8
Codec ID                       : S_TEXT/UTF8
Codec ID/Info                  : UTF-8 Plain Text
Duration                       : 1 h 59 min
Bit rate                       : 59 b/s
Count of elements              : 1066
Stream size                    : 51.9 KiB (0%)
Title                          : CHS-EN
Language                       : Chinese
Default                        : Yes
Forced                         : No

分享快乐!
回复

使用道具 举报

 

精彩评论4

正序浏览
libaiyi 发表于 2022-3-28 07:48 | 显示全部楼层
 
牛呀!感谢分享~
分享快乐!
回复

使用道具 举报

 
chord3300 发表于 2022-5-15 18:12 | 显示全部楼层
 
真不错,谢谢分享。
分享快乐!
回复

使用道具 举报

 
您需要登录后才可以回帖 登录 | 立即注册

本版积分规则

0关注

18粉丝

869帖子

广告位
经典RPG武侠手游,安卓首发。
  • 版块推荐
  • 百宝箱
推荐阅读更多+
会员达人更多+
  • e2302

    主题:0 积分:11445
  • LCC

    主题:0 积分:9628
  • reese

    主题:0 积分:9091
广告位
经典RPG武侠手游,安卓首发。

信息推荐

更多+

最新信息

更多+

加入我们!分享快乐!

人人为我,我为人人!抵制吸血和收费分享行为!

从我做起!

只分享高品质影视资源

只求质量、不求数量、不抢首发!

Email:[email protected]

DHTCLUB - 高品质影视资源分享俱乐部