开启左侧

寻秦记.Jade.A.Step.Into.The.Past.2001.1440x1080p.H264.2Audio-DHTCLUB

[复制链接]
dhtclub 发表于 2020-3-6 20:00 | 显示全部楼层 |阅读模式 打印 上一主题 下一主题

寻秦记购买VIP查看下载地址(2005~2000)1080P 

简介21世纪特种部队人员项少龙(古天乐 饰)决意要参加穿梭时空的研究,是为了要挽回自己的爱情。但由于时光机的数据出错,把少龙带到了战国时期。
  当时的嬴政(林峰 饰)还没有登上帝位,更被囚禁于赵国。少龙为了能返回未来,便不惜一切帮助嬴政顺利登上帝位。由于少龙的机智过人与特殊身份,他的能力得到了众人的赏识,因此他也遭到了多方奸狡之人的暗算。
  在腹背受敌的情况下,生性风流的少龙也纠缠上一段复杂的四角恋爱关系。到底少龙能否协助嬴政赢得天下呢?他会如何处理自己与隔世恋人的情缘呢?
导演石铭泉 / 刘顺安 / 林子欣 / 吴锦源 / 文伟鸿
编剧黄国辉 / 汤建平 / 刘彩云 / 张小方 / 何群娥 / 黄易
类型喜剧 剧情 历史 
地区中国香港 
语言普通话 粤语 
集数40集
资源大小72.7G
字幕语言无内嵌字幕 
豆瓣评分8.4
豆瓣链接https://movie.douban.com/subject/2983389/
IMDB评分7.7
IMDB链接https://www.imdb.com/title/tt0855326
演员表

寻秦记 的主要演员表……

古天乐 / 江华 / 宣萱 / 郭羡妮 / 林峯 / 滕丽名 / 郑雪儿 / 雪梨 / 郭锋
影片介绍

寻秦记 的剧情介绍……

21世纪特种部队人员项少龙(古天乐 饰)决意要参加穿梭时空的研究,是为了要挽回自己的爱情。但由于时光机的数据出错,把少龙带到了战国时期。
  当时的嬴政(林峰 饰)还没有登上帝位,更被囚禁于赵国。少龙为了能返回未来,便不惜一切帮助嬴政顺利登上帝位。由于少龙的机智过人与特殊身份,他的能力得到了众人的赏识,因此他也遭到了多方奸狡之人的暗算。
  在腹背受敌的情况下,生性风流的少龙也纠缠上一段复杂的四角恋爱关系。到底少龙能否协助嬴政赢得天下呢?他会如何处理自己与隔世恋人的情缘呢?
资源下载
1080i/p下载地址 点击查看
4K下载地址 点击查看
《寻秦记》下载帮助和注意事项:
1、本站所有资源均为磁力链资源,无需注册登录即可查看下载地址
2、使用迅雷或网盘离线是无法下载资源的!必须使用BT下载工具,如果没有下载速度请添加我们提供的tracker服务器列表
3、推荐BT下载工具:比特彗星qbittorrentutorrent 内网使用路由请做好端口映射或开启UPnP
4、不管选择哪种P2P下载工具,都希望你能在条件允许的前提下不要限速多做种分享上传一段时间
5、刻意限制P2P下载工具的上传速度(此行为俗称:吸血)将影响你的下载速度 防止被吸血和防止运营商过滤的教程
6、人人为我我为人人,只有大家不限制上传速度,大家才能共同获得更快的下载速度,这才是P2P应有的良性循环!
7、所有资源来源网络,本站服务器不存储任何种子文件,如侵犯您的权益,请联系 [email protected] 删除资源
点评&资源版本介绍

点评

DHTCLUB评分: 4.0
DHTCLUB评分: 4
  发表于 2020-3-7 07:49
 
寻秦记.Jade.A.Step.Into.The.Past.Ep01.2001.1440x1080p.H264.2Audio-DHTCLUB.jpg
General
ID                             : 1 (0x1)
Format                         : MPEG-TS
File size                      : 1.80 GiB
Duration                       : 44 min 36 s
Overall bit rate mode          : Variable
Overall bit rate               : 5 766 kb/s
Maximum Overall bit rate       : 35.5 Mb/s

Video
ID                             : 4113 (0x1011)
Menu ID                        : 1 (0x1)
Format                         : AVC
Format/Info                    : Advanced Video Codec
Format profile                 : [email protected]
Format settings                : CABAC / 3 Ref Frames
Format settings, CABAC         : Yes
Format settings, Reference fra : 3 frames
Codec ID                       : 27
Duration                       : 44 min 36 s
Bit rate mode                  : Variable
Bit rate                       : 5 093 kb/s
Maximum bit rate               : 8 000 kb/s
Width                          : 1 440 pixels
Height                         : 1 080 pixels
Display aspect ratio           : 16:9
Frame rate                     : 25.000 FPS
Standard                       : PAL
Color space                    : YUV
Chroma subsampling             : 4:2:0
Bit depth                      : 8 bits
Scan type                      : Interlaced
Scan type, store method        : Separated fields
Scan order                     : Top Field First
Bits/(Pixel*Frame)             : 0.131
Stream size                    : 1.59 GiB (88%)
Language                       : Chinese
Color range                    : Limited
Color primaries                : BT.709
Transfer characteristics       : BT.709
Matrix coefficients            : BT.709

Audio #1
ID                             : 4352 (0x1100)
Menu ID                        : 1 (0x1)
Format                         : AC-3
Format/Info                    : Audio Coding 3
Commercial name                : Dolby Digital
Codec ID                       : 129
Duration                       : 44 min 36 s
Bit rate mode                  : Constant
Bit rate                       : 192 kb/s
Channel(s)                     : 2 channels
Channel layout                 : L R
Sampling rate                  : 48.0 kHz
Frame rate                     : 31.250 FPS (1536 SPF)
Bit depth                      : 16 bits
Compression mode               : Lossy
Stream size                    : 61.3 MiB (3%)
Language                       : Chinese
Service kind                   : Complete Main

Audio #2
ID                             : 4353 (0x1101)
Menu ID                        : 1 (0x1)
Format                         : AC-3
Format/Info                    : Audio Coding 3
Commercial name                : Dolby Digital
Codec ID                       : 129
Duration                       : 44 min 36 s
Bit rate mode                  : Constant
Bit rate                       : 192 kb/s
Channel(s)                     : 2 channels
Channel layout                 : L R
Sampling rate                  : 48.0 kHz
Frame rate                     : 31.250 FPS (1536 SPF)
Bit depth                      : 16 bits
Compression mode               : Lossy
Stream size                    : 61.3 MiB (3%)
Language                       : Chinese
Service kind                   : Complete Main

Text #1
ID                             : 4608 (0x1200)
Menu ID                        : 1 (0x1)
Format                         : PGS
Codec ID                       : 144
Delay relative to video        : 22 s 933 ms
Language                       : Chinese

Text #2
ID                             : 4609 (0x1201)
Menu ID                        : 1 (0x1)
Format                         : PGS
Codec ID                       : 144
Delay relative to video        : 22 s 933 ms
Language                       : Chinese


分享快乐!
回复

使用道具 举报

 

精彩评论9

正序浏览
vampire 发表于 2020-3-6 21:26 | 显示全部楼层
 
又是一部经典之作的问世!
我爱你的血!
回复

使用道具 举报

 
skymailwu 发表于 2020-6-5 15:10 | 显示全部楼层
 
有截图看看么
分享快乐!
回复

使用道具 举报

 
skymailwu 发表于 2020-6-6 09:17 | 显示全部楼层
 
用了各种BT工具都连不到一个种子啊
分享快乐!
回复

使用道具 举报

 
宝娜果 发表于 2021-3-24 22:02 | 显示全部楼层
 
谢谢分享,很经典的一部港剧
分享快乐!
回复

使用道具 举报

 
您需要登录后才可以回帖 登录 | 立即注册

本版积分规则

0关注

11粉丝

837帖子

广告位
经典RPG武侠手游,安卓首发。
  • 版块推荐
  • 百宝箱
会员达人更多+
广告位
经典RPG武侠手游,安卓首发。

信息推荐

更多+

最新信息

更多+

加入我们!分享快乐!

人人为我,我为人人!抵制吸血和收费分享行为!

从我做起!

只分享高品质影视资源

只求质量、不求数量、不抢首发!

Email:[email protected]

DHTCLUB - 高品质影视资源分享俱乐部