开启左侧

大秦帝国之裂变.The.Qin.Empire.2009.WEB-DL.4K.HEVC.AAC-DHTCLUB

[复制链接]
dhtclub 发表于 2020-11-3 19:19 | 显示全部楼层 |阅读模式 打印 上一主题 下一主题

大秦帝国之裂变购买VIP查看下载地址(2010~2006)4K 

简介两千七百年前,华夏民族进入了凡有血气、皆有争心的大争之世,谦谦上古贵族君子风的春秋时代落下帷幕,攻掠征伐、尸横遍野的战国时代隆重登场。时为西北边陲蕞尔小国的秦国饱受六国摧残挞伐,而今已在灭国边缘。秦献公身死战场,年纪轻轻的仲公子渠梁(侯勇 饰)在危难时刻即位,他深藏屈辱,在六国夹攻下苟延残喘,发誓变法崛起。秦孝公渠梁广招天下贤能之士,天不亡秦,曾在魏国并不得志的卫鞅(王志飞 饰)辗转来到秦国,并凭借一身才学和对天下局势的清醒认识而得到秦孝公重用。卫鞅在秦国掀起了影响深远且饱受争议的变法,一代强秦由此崛起……
  本片根据孙皓晖的同名历史小说的第一部改编。
导演黄健中 / 延艺
编剧孙皓晖
类型剧情 古装 历史 
地区中国内地 
语言普通话 
集数48集
资源大小89.3G
字幕语言内嵌简中 
豆瓣评分9.3
豆瓣链接https://movie.douban.com/subject/3114220/
IMDB评分8.1
IMDB链接https://www.imdb.com/title/tt5293462/
演员表

大秦帝国之裂变 的主要演员表……

侯勇 / 王志飞 / 卢勇 / 吕中 / 高圆圆 / 李立群 / 许还山 / 齐芳 / 尤勇 / 杜雨露 / 王辉 / 刘乃艺 / 孙飞虎 / 卢映 / 毛乐 / 苑冉 / 仇永力 / 于洋 / 午马 / 郭常辉 / 季晨 / 侯祥玲 / 刘牧 / 陈之辉 / 董祁明 / 卢超凡 / 姜华 / 钱卫东 / 赵冬柏 / 周玉华 / 王迎奇 / 李世德 / 金明 / 冯鹏飞 / 任伟 / 焦长道 / 江化霖 / 李卓霖 / 任希鸿 / 刘冰峰 / 李海鸽 / 冯峥 / 夏露 / 徐玉庭 / 孙蛟龙 / 赵伊
影片介绍

大秦帝国之裂变 的剧情介绍……

两千七百年前,华夏民族进入了凡有血气、皆有争心的大争之世,谦谦上古贵族君子风的春秋时代落下帷幕,攻掠征伐、尸横遍野的战国时代隆重登场。时为西北边陲蕞尔小国的秦国饱受六国摧残挞伐,而今已在灭国边缘。秦献公身死战场,年纪轻轻的仲公子渠梁(侯勇 饰)在危难时刻即位,他深藏屈辱,在六国夹攻下苟延残喘,发誓变法崛起。秦孝公渠梁广招天下贤能之士,天不亡秦,曾在魏国并不得志的卫鞅(王志飞 饰)辗转来到秦国,并凭借一身才学和对天下局势的清醒认识而得到秦孝公重用。卫鞅在秦国掀起了影响深远且饱受争议的变法,一代强秦由此崛起……
  本片根据孙皓晖的同名历史小说的第一部改编。
资源下载
1080i/p下载地址 点击查看
4K下载地址 点击查看
《大秦帝国之裂变》下载帮助和注意事项:
1、本站所有资源均为磁力链资源,无需注册登录即可查看下载地址
2、使用迅雷或网盘离线是无法下载资源的!必须使用BT下载工具,如果没有下载速度请添加我们提供的tracker服务器列表
3、推荐BT下载工具:比特彗星qbittorrentutorrent 内网使用路由请做好端口映射或开启UPnP
4、不管选择哪种P2P下载工具,都希望你能在条件允许的前提下不要限速多做种分享上传一段时间
5、刻意限制P2P下载工具的上传速度(此行为俗称:吸血)将影响你的下载速度 防止被吸血和防止运营商过滤的教程
6、人人为我我为人人,只有大家不限制上传速度,大家才能共同获得更快的下载速度,这才是P2P应有的良性循环!
7、所有资源来源网络,本站服务器不存储任何种子文件,如侵犯您的权益,请联系 [email protected] 删除资源
点评&资源版本介绍

点评

海!外直播 abre.ai/sbbb 禁闻视频 v.ht/4444444 人们都说CCtV只有一句话是真实的:现在是北京时间7点整;但那时段的广告却最贵?据说厂家都知道:爱看《新闻联播》的人最容易受骗。呵呵,不如看这个..  发表于 2022-10-27 17:00
 
大秦帝国之裂变.EP01 大海战2 硬核RTS海战游戏-画面党手残党慎入.jpg
General
Format                         : MPEG-4
Format profile                 : Base Media
Codec ID                       : isom (isom/iso2/mp41)
File size                      : 2.32 GiB
Duration                       : 45 min 55 s
Overall bit rate mode          : Variable
Overall bit rate               : 7 240 kb/s
Writing application            : Lavf58.32.104

Video
ID                             : 1
Format                         : HEVC
Format/Info                    : High Efficiency Video Coding
Format profile                 : [email protected]@Main
Codec ID                       : hev1
Codec ID/Info                  : High Efficiency Video Coding
Duration                       : 45 min 55 s
Bit rate                       : 6 920 kb/s
Width                          : 3 840 pixels
Height                         : 2 160 pixels
Display aspect ratio           : 16:9
Frame rate mode                : Constant
Frame rate                     : 25.000 FPS
Color space                    : YUV
Chroma subsampling             : 4:2:0
Bit depth                      : 8 bits
Bits/(Pixel*Frame)             : 0.033
Stream size                    : 2.22 GiB (96%)
Color range                    : Limited
Color primaries                : BT.709
Transfer characteristics       : BT.709
Matrix coefficients            : BT.709
Codec configuration box        : hvcC

Audio
ID                             : 2
Format                         : AAC LC
Format/Info                    : Advanced Audio Codec Low Complexity
Codec ID                       : mp4a-40-2
Duration                       : 45 min 55 s
Bit rate mode                  : Variable
Bit rate                       : 318 kb/s
Channel(s)                     : 2 channels
Channel layout                 : L R
Sampling rate                  : 48.0 kHz
Frame rate                     : 46.875 FPS (1024 SPF)
Compression mode               : Lossy
Stream size                    : 103 MiB (4%)
Default                        : Yes
Alternate group                : 1


分享快乐!
回复

使用道具 举报

 

精彩评论8

正序浏览
svipdht 发表于 2020-11-4 17:21 | 显示全部楼层
 
好好好,感谢大佬分享
分享快乐!
回复

使用道具 举报

 
hcy 发表于 2022-10-26 06:20 | 显示全部楼层
 
多谢分享,谢谢
分享快乐!
回复

使用道具 举报

 
hcy 发表于 2022-10-26 06:20 | 显示全部楼层
 
多谢分享,谢谢
分享快乐!
回复

使用道具 举报

 
hcy 发表于 2022-10-26 06:21 | 显示全部楼层
 
多谢分享,谢谢
分享快乐!
回复

使用道具 举报

 
hcy 发表于 2022-10-26 06:22 | 显示全部楼层
 
多谢分享,谢谢
分享快乐!
回复

使用道具 举报

 
hcy 发表于 2022-10-26 06:23 | 显示全部楼层
 
多谢分享,谢谢
分享快乐!
回复

使用道具 举报

 
hcy 发表于 2022-10-26 06:24 | 显示全部楼层
 
多谢分享,谢谢
分享快乐!
回复

使用道具 举报

 
您需要登录后才可以回帖 登录 | 立即注册

本版积分规则

0关注

18粉丝

869帖子

广告位
经典RPG武侠手游,安卓首发。
  • 版块推荐
  • 百宝箱
推荐阅读更多+
会员达人更多+
  • e2302

    主题:0 积分:11445
  • LCC

    主题:0 积分:9628
  • reese

    主题:0 积分:9091
广告位
经典RPG武侠手游,安卓首发。

信息推荐

更多+

最新信息

更多+

加入我们!分享快乐!

人人为我,我为人人!抵制吸血和收费分享行为!

从我做起!

只分享高品质影视资源

只求质量、不求数量、不抢首发!

Email:[email protected]

DHTCLUB - 高品质影视资源分享俱乐部