开启左侧

门徒.Protege.2007.BluRay.1080p.x265.10bit-DHTCLUB

[复制链接]
dhtclub 发表于 2020-11-15 02:29 | 显示全部楼层 |阅读模式 打印 上一主题 下一主题

门徒Protege(2010~2006)1080P 

简介阿昆(刘德华饰)长年垄断了海洛因市场,虽视追随8年多的阿力(吴彦祖饰)为接班人,但阿昆一向小心行事,从没透露过“货仓“、加工场的位置也未见过其他“同事”。阿昆打算把自己的生意全权交由阿力打理,阿力渐渐知道了更多毒品市场中的秘密。
  8年来阿力以卧底的身份搜集毒贩的全部资料,但他对吸毒者阿芬(张静初饰)投入了感情,阿芬的景况却令他对自己边缘人的身份感到更加迷惘。
  斗志斗勇的过程中,阿力最终取得了阿昆的完全信任,8年来的追踪,也有了终结。
导演尔冬升
编剧尔冬升 / 龙文康 / 高新 / 秦天南
类型剧情 惊悚 罪案 
地区中国香港 
语言普通话 粤语 
时长109分钟
资源大小7.2G
字幕语言内嵌简中 内嵌繁中 内嵌英语 
豆瓣评分7.8
豆瓣链接https://movie.douban.com/subject/1890784/
IMDB评分7.2
IMDB链接https://www.imdb.com/title/tt0841150
演员表

门徒 的主要演员表……

刘德华 / 吴彦祖 / 古天乐 / 张静初 / 袁咏仪 / 廖启智 / 何美钿 / 尔冬升
影片介绍

门徒 的剧情介绍……

阿昆(刘德华饰)长年垄断了海洛因市场,虽视追随8年多的阿力(吴彦祖饰)为接班人,但阿昆一向小心行事,从没透露过“货仓“、加工场的位置也未见过其他“同事”。阿昆打算把自己的生意全权交由阿力打理,阿力渐渐知道了更多毒品市场中的秘密。
  8年来阿力以卧底的身份搜集毒贩的全部资料,但他对吸毒者阿芬(张静初饰)投入了感情,阿芬的景况却令他对自己边缘人的身份感到更加迷惘。
  斗志斗勇的过程中,阿力最终取得了阿昆的完全信任,8年来的追踪,也有了终结。
资源下载
1080i/p下载地址 点击查看
4K下载地址 点击查看
《门徒》下载帮助和注意事项:
1、本站所有资源均为磁力链资源,无需注册登录即可查看下载地址
2、使用迅雷或网盘离线是无法下载资源的!必须使用BT下载工具,如果没有下载速度请添加我们提供的tracker服务器列表
3、推荐BT下载工具:比特彗星qbittorrentutorrent 内网使用路由请做好端口映射或开启UPnP
4、不管选择哪种P2P下载工具,都希望你能在条件允许的前提下不要限速多做种分享上传一段时间
5、刻意限制P2P下载工具的上传速度(此行为俗称:吸血)将影响你的下载速度 防止被吸血和防止运营商过滤的教程
6、人人为我我为人人,只有大家不限制上传速度,大家才能共同获得更快的下载速度,这才是P2P应有的良性循环!
7、所有资源来源网络,本站服务器不存储任何种子文件,如侵犯您的权益,请联系 [email protected] 删除资源
点评&资源版本介绍

点评

海!外直播 abre.ai/999x 禁闻视频 v.ht/xxee 记者:暴雨村里有房子有倒的吗?老乡:没倒塌,拆迁办比洪水来得早。记者:地里庄稼被冲了吧? 老乡:真的没有!开发商也比洪水来得早,地早征走了。  发表于 2022-9-20 16:03
 
门徒 大海战2 硬核RTS海战游戏-画面党手残党慎入.jpg
General
Unique ID                      : 211106221575841262788978263069761589006 (0x9ED19450CD3B90233BB227958A95CF0E)
Format                         : Matroska
Format version                 : Version 4
File size                      : 7.14 GiB
Duration                       : 1 h 48 min
Overall bit rate               : 9 392 kb/s
Encoded date                   : UTC 2018-11-08 06:02:55
Writing application            : mkvmerge v20.0.0 ('I Am The Sun') 64-bit
Writing library                : libebml v1.3.5 + libmatroska v1.4.8

Video
ID                             : 1
Format                         : HEVC
Format/Info                    : High Efficiency Video Coding
Format profile                 : Main [email protected]@Main
Codec ID                       : V_MPEGH/ISO/HEVC
Duration                       : 1 h 48 min
Bit rate                       : 7 925 kb/s
Width                          : 1 918 pixels
Height                         : 816 pixels
Display aspect ratio           : 2.35:1
Frame rate mode                : Constant
Frame rate                     : 23.976 (24000/1001) FPS
Color space                    : YUV
Chroma subsampling             : 4:2:0
Bit depth                      : 10 bits
Bits/(Pixel*Frame)             : 0.211
Stream size                    : 6.03 GiB (84%)
Writing library                : x265 2.8+1-478bfe2b7673:[Windows][GCC 7.3.0][64 bit] 10bit
Encoding settings              : cpuid=1111039 / frame-threads=4 / numa-pools=16 / wpp / no-pmode / no-pme / no-psnr / no-ssim / log-level=2 / csv / csv-log-level=0 / input-csp=1 / input-res=1918x816 / interlace=0 / total-frames=156583 / level-idc=0 / high-tier=1 / uhd-bd=0 / ref=5 / no-allow-non-conformance / no-repeat-headers / annexb / no-aud / no-hrd / info / hash=0 / no-temporal-layers / no-open-gop / min-keyint=1 / keyint=360 / gop-lookahead=0 / bframes=9 / b-adapt=2 / b-pyramid / bframe-bias=0 / rc-lookahead=60 / lookahead-slices=4 / scenecut=40 / radl=0 / no-intra-refresh / ctu=32 / min-cu-size=8 / rect / no-amp / max-tu-size=16 / tu-inter-depth=2 / tu-intra-depth=2 / limit-tu=4 / rdoq-level=1 / dynamic-rd=0.00 / ssim-rd / signhide / no-tskip / nr-intra=0 / nr-inter=0 / no-constrained-intra / no-strong-intra-smoothing / max-merge=3 / limit-refs=2 / limit-modes / me=3 / subme=5 / merange=25 / temporal-mvp / weightp / weightb / no-analyze-src-pics / deblock=-1:-1 / no-sao / no-sao-non-deblock / rd=4 / no-early-skip / rskip / no-fast-intra / no-tskip-fast / no-cu-lossless / b-intra / no-splitrd-skip / rdpenalty=1 / psy-rd=0.00 / psy-rdoq=5.00 / no-rd-refine / no-lossless / cbqpoffs=-2 / crqpoffs=-2 / rc=crf / crf=19.0 / qcomp=0.70 / qpstep=4 / stats-write=0 / stats-read=0 / ipratio=1.40 / pbratio=1.30 / aq-mode=1 / aq-strength=0.80 / cutree / zone-count=0 / no-strict-cbr / qg-size=16 / no-rc-grain / qpmax=69 / qpmin=0 / no-const-vbv / sar=0 / overscan=0 / videoformat=5 / range=0 / colorprim=1 / transfer=2 / colormatrix=2 / chromaloc=0 / display-window=0 / max-cll=0,0 / min-luma=0 / max-luma=1023 / log2-max-poc-lsb=8 / vui-timing-info / vui-hrd-info / slices=1 / no-opt-qp-pps / no-opt-ref-list-length-pps / no-multi-pass-opt-rps / scenecut-bias=0.05 / no-opt-cu-delta-qp / no-aq-motion / no-hdr / no-hdr-opt / no-dhdr10-opt / no-idr-recovery-sei / analysis-reuse-level=5 / scale-factor=0 / refine-intra=0 / refine-inter=0 / refine-mv=0 / no-limit-sao / ctu-info=0 / no-lowpass-dct / refine-mv-type=0 / copy-pic=1 / max-ausize-factor=1.0 / no-dynamic-refine / no-single-sei
Language                       : Chinese
Default                        : Yes
Forced                         : No
Color range                    : Limited
Color primaries                : BT.709
Duration_Source                : General_Duration

Audio #1
ID                             : 2
Format                         : AC-3
Format/Info                    : Audio Coding 3
Commercial name                : Dolby Digital
Codec ID                       : A_AC3
Duration                       : 1 h 48 min
Bit rate mode                  : Constant
Bit rate                       : 640 kb/s
Channel(s)                     : 6 channels
Channel layout                 : L R C LFE Ls Rs
Sampling rate                  : 48.0 kHz
Frame rate                     : 31.250 FPS (1536 SPF)
Compression mode               : Lossy
Stream size                    : 498 MiB (7%)
Title                          : 粤语
Language                       : Chinese
Service kind                   : Complete Main
Default                        : Yes
Forced                         : No
Duration_Source                : General_Duration

Audio #2
ID                             : 3
Format                         : AC-3
Format/Info                    : Audio Coding 3
Commercial name                : Dolby Digital
Codec ID                       : A_AC3
Duration                       : 1 h 48 min
Bit rate mode                  : Constant
Bit rate                       : 640 kb/s
Channel(s)                     : 6 channels
Channel layout                 : L R C LFE Ls Rs
Sampling rate                  : 48.0 kHz
Frame rate                     : 31.250 FPS (1536 SPF)
Compression mode               : Lossy
Stream size                    : 498 MiB (7%)
Title                          : 国语
Language                       : Chinese
Service kind                   : Complete Main
Default                        : No
Forced                         : No
Duration_Source                : General_Duration

Text #1
ID                             : 4
Format                         : PGS
Muxing mode                    : zlib
Codec ID                       : S_HDMV/PGS
Codec ID/Info                  : Picture based subtitle format used on BDs/HD-DVDs
Title                          : 繁体
Language                       : Chinese
Default                        : Yes
Forced                         : No

Text #2
ID                             : 5
Format                         : PGS
Muxing mode                    : zlib
Codec ID                       : S_HDMV/PGS
Codec ID/Info                  : Picture based subtitle format used on BDs/HD-DVDs
Title                          : 简体
Language                       : Chinese
Default                        : No
Forced                         : No

Text #3
ID                             : 6
Format                         : PGS
Muxing mode                    : zlib
Codec ID                       : S_HDMV/PGS
Codec ID/Info                  : Picture based subtitle format used on BDs/HD-DVDs
Title                          : 英文
Language                       : English
Default                        : No
Forced                         : No

Menu
00:00:00.000                   : en:Chapter 01
00:07:34.036                   : en:Chapter 02
00:16:00.542                   : en:Chapter 03
00:29:26.347                   : en:Chapter 04
00:36:29.437                   : en:Chapter 05
00:43:32.443                   : en:Chapter 06
00:55:52.098                   : en:Chapter 07
01:02:18.943                   : en:Chapter 08
01:15:09.129                   : en:Chapter 09
01:20:22.776                   : en:Chapter 10
01:32:52.233                   : en:Chapter 11
01:39:15.991                   : en:Chapter 12


分享快乐!
回复

使用道具 举报

 

精彩评论3

正序浏览
huminju 发表于 2022-5-1 19:57 | 显示全部楼层
 
感谢辛勤制作 !
分享快乐!
回复

使用道具 举报

 
chord3300 发表于 2022-5-16 09:29 | 显示全部楼层
 
不错,感谢分享。
分享快乐!
回复

使用道具 举报

 
您需要登录后才可以回帖 登录 | 立即注册

本版积分规则

0关注

18粉丝

869帖子

广告位
经典RPG武侠手游,安卓首发。
  • 版块推荐
  • 百宝箱
推荐阅读更多+
会员达人更多+
  • e2302

    主题:0 积分:11445
  • LCC

    主题:0 积分:9628
  • reese

    主题:0 积分:9091
广告位
经典RPG武侠手游,安卓首发。

信息推荐

更多+

最新信息

更多+

加入我们!分享快乐!

人人为我,我为人人!抵制吸血和收费分享行为!

从我做起!

只分享高品质影视资源

只求质量、不求数量、不抢首发!

Email:[email protected]

DHTCLUB - 高品质影视资源分享俱乐部