开启左侧

性爱指南.The.Lovers'.Guide.Sex.Positions.2002.1080P.x264.AAC-DHTCLUB

[复制链接]
dhtclub 发表于 2020-11-19 14:19 | 显示全部楼层 |阅读模式 打印 上一主题 下一主题

性爱指南购买VIP查看下载地址(2005~2000)1080P 

简介在最初的《情人指南》轰动英国公众生活20年后,这本开创性的指南又回来了,她毫无保留地探索着做爱的乐趣。

为了纪念这部将成人性建议牢牢地纳入主流的系列的周年纪念日,最新一期采用了尖端的3D技术,作为性革命的下一站。在这里,观众被一种前所未有的亲密感和丰富的观点所吸引。

《情人指南》在其丰富多彩的20年历史中,以13种语言在22个国家发行,售出150万册,之后将于2011年1月在英国电影院首映,并于2011年2月7日在DVD和蓝光上购买,以备情人节礼物。

《情人指南》的3D点睛之笔比以往任何时候都更大、更好、更大胆,它以Gemma Bisix(东区人、霍利约克人、冰上舞蹈)和杰里米·爱德华兹(Hollyoaks,Holby City)的声音为特色,将把观众带到一个全新的做爱启蒙阶段。
导演Robert Page
编剧Emily Dubberley / Robert Page
类型其他 
地区英国 
语言英语 
集数1集
资源大小4.4G
字幕语言内嵌英语 内嵌简中英双语 
豆瓣评分7.6
豆瓣链接https://movie.douban.com/subject/3127587/
IMDB评分升级VIP查看密码
IMDB链接https://www.imdb.com/title/tt0989838/
演员表

性爱指南 的主要演员表……

Carley / Karina Clarke / Dawn Harper / 里奥·玛丽亚 / Lexi Martinez / Faye Rampton / Tony Uttley / Kat Varga
影片介绍

性爱指南 的剧情介绍……

在最初的《情人指南》轰动英国公众生活20年后,这本开创性的指南又回来了,她毫无保留地探索着做爱的乐趣。

为了纪念这部将成人性建议牢牢地纳入主流的系列的周年纪念日,最新一期采用了尖端的3D技术,作为性革命的下一站。在这里,观众被一种前所未有的亲密感和丰富的观点所吸引。

《情人指南》在其丰富多彩的20年历史中,以13种语言在22个国家发行,售出150万册,之后将于2011年1月在英国电影院首映,并于2011年2月7日在DVD和蓝光上购买,以备情人节礼物。

《情人指南》的3D点睛之笔比以往任何时候都更大、更好、更大胆,它以Gemma Bisix(东区人、霍利约克人、冰上舞蹈)和杰里米·爱德华兹(Hollyoaks,Holby City)的声音为特色,将把观众带到一个全新的做爱启蒙阶段。
资源下载
1080i/p下载地址 点击查看
4K下载地址 点击查看
《性爱指南》下载帮助和注意事项:
1、本站所有资源均为磁力链资源,无需注册登录即可查看下载地址
2、使用迅雷或网盘离线是无法下载资源的!必须使用BT下载工具,如果没有下载速度请添加我们提供的tracker服务器列表
3、推荐BT下载工具:比特彗星qbittorrentutorrent 内网使用路由请做好端口映射或开启UPnP
4、不管选择哪种P2P下载工具,都希望你能在条件允许的前提下不要限速多做种分享上传一段时间
5、刻意限制P2P下载工具的上传速度(此行为俗称:吸血)将影响你的下载速度 防止被吸血和防止运营商过滤的教程
6、人人为我我为人人,只有大家不限制上传速度,大家才能共同获得更快的下载速度,这才是P2P应有的良性循环!
7、所有资源来源网络,本站服务器不存储任何种子文件,如侵犯您的权益,请联系 [email protected] 删除资源
点评&资源版本介绍
 
性爱指南 大海战2 硬核RTS海战游戏-画面党手残党慎入.jpg
General
Unique ID                      : 84287535442233732460798013188765137434 (0x3F6930581FFBEDE0B8B0ACCF949C3A1A)
Format                         : Matroska
Format version                 : Version 4
File size                      : 4.32 GiB
Duration                       : 1 h 5 min
Overall bit rate mode          : Variable
Overall bit rate               : 9 380 kb/s
Encoded date                   : UTC 2020-11-19 06:11:52
Writing application            : mkvmerge v51.0.0 ('I Wish') 64-bit
Writing library                : libebml v1.4.0 + libmatroska v1.6.2

Video
ID                             : 1
Format                         : AVC
Format/Info                    : Advanced Video Codec
Format profile                 : [email protected]
Format settings                : CABAC / 3 Ref Frames
Format settings, CABAC         : Yes
Format settings, Reference fra : 3 frames
Codec ID                       : V_MPEG4/ISO/AVC
Duration                       : 1 h 5 min
Bit rate mode                  : Variable
Bit rate                       : 7 874 kb/s
Maximum bit rate               : 25.0 Mb/s
Width                          : 1 280 pixels
Height                         : 720 pixels
Display aspect ratio           : 16:9
Frame rate mode                : Constant
Frame rate                     : 23.976 (24000/1001) FPS
Color space                    : YUV
Chroma subsampling             : 4:2:0
Bit depth                      : 8 bits
Scan type                      : Progressive
Bits/(Pixel*Frame)             : 0.356
Stream size                    : 3.62 GiB (84%)
Writing library                : x264 core 112 r1867 22bfd31
Encoding settings              : cabac=1 / ref=3 / deblock=1:0:0 / analyse=0x3:0x133 / me=umh / subme=7 / psy=1 / psy_rd=1.00:0.00 / mixed_ref=1 / me_range=16 / chroma_me=1 / trellis=1 / 8x8dct=1 / cqm=0 / deadzone=21,11 / fast_pskip=1 / chroma_qp_offset=-2 / threads=6 / sliced_threads=0 / nr=0 / decimate=1 / interlaced=0 / constrained_intra=0 / bframes=3 / b_pyramid=0 / b_adapt=1 / b_bias=0 / direct=1 / weightb=1 / open_gop=0 / weightp=2 / keyint=240 / keyint_min=24 / scenecut=40 / intra_refresh=0 / rc_lookahead=40 / rc=2pass / mbtree=1 / bitrate=7874 / ratetol=1.0 / qcomp=0.60 / qpmin=0 / qpmax=51 / qpstep=4 / cplxblur=20.0 / qblur=0.5 / vbv_maxrate=25000 / vbv_bufsize=25000 / nal_hrd=vbr / ip_ratio=1.40 / aq=1:1.00
Default                        : Yes
Forced                         : No

Audio
ID                             : 2
Format                         : DTS
Format/Info                    : Digital Theater Systems
Codec ID                       : A_DTS
Duration                       : 1 h 5 min
Bit rate mode                  : Constant
Bit rate                       : 1 509 kb/s
Channel(s)                     : 6 channels
Channel layout                 : C L R Ls Rs LFE
Sampling rate                  : 48.0 kHz
Frame rate                     : 93.750 FPS (512 SPF)
Bit depth                      : 16 bits
Compression mode               : Lossy
Stream size                    : 712 MiB (16%)
Language                       : English
Default                        : Yes
Forced                         : No

Text #1
ID                             : 3
Format                         : VobSub
Muxing mode                    : zlib
Codec ID                       : S_VOBSUB
Codec ID/Info                  : Picture based subtitle format used on DVDs
Duration                       : 1 h 3 min
Bit rate                       : 15.9 kb/s
Count of elements              : 905
Stream size                    : 7.28 MiB (0%)
Language                       : English
Default                        : No
Forced                         : No

Text #2
ID                             : 4
Format                         : UTF-8
Codec ID                       : S_TEXT/UTF8
Codec ID/Info                  : UTF-8 Plain Text
Duration                       : 1 h 3 min
Bit rate                       : 169 b/s
Count of elements              : 905
Stream size                    : 79.3 KiB (0%)
Title                          : CHS
Default                        : Yes
Forced                         : No


分享快乐!
回复

使用道具 举报

 
您需要登录后才可以回帖 登录 | 立即注册

本版积分规则

0关注

11粉丝

838帖子

广告位
经典RPG武侠手游,安卓首发。
  • 版块推荐
  • 百宝箱
推荐阅读更多+
会员达人更多+
广告位
经典RPG武侠手游,安卓首发。

信息推荐

更多+

最新信息

更多+

加入我们!分享快乐!

人人为我,我为人人!抵制吸血和收费分享行为!

从我做起!

只分享高品质影视资源

只求质量、不求数量、不抢首发!

Email:[email protected]

DHTCLUB - 高品质影视资源分享俱乐部