开启左侧

异度空间.Inner.Senses.2002.Blu-ray.1080p.AVC.TrueHD5.1-DHTCLUB

[复制链接]
dhtclub 发表于 2020-11-20 08:12 | 显示全部楼层 |阅读模式 打印 上一主题 下一主题

异度空间Inner Senses(2005~2000)1080P 

简介章昕(林嘉欣 饰)得知房东的妻儿死于泥石流后,总会看见她们的鬼魂,令男友无法忍受折磨离她而去,无奈之下,她求助于心理医师阿占(张国荣 饰)。阿占清楚知道章昕所见不过是因长久孤闭所生幻觉,开始竭尽全能帮助她,终使其慢慢脱离了种种恐怖的意想。两人在这一过程中渐渐生出感情。
  当置身阿占的生活空间时,章昕发现阿占有诸多怪异举动,调查过后,发现他患有严重的精神分裂,一到晚上某时即被幻象所困痛不欲生。为了让爱人回归正常,章昕决定帮助他赶走心里的魔障。
导演罗志良
编剧尔冬升 / 罗志良 / 杨倩玲
类型剧情 恐怖 
地区中国香港 
语言普通话 粤语 
时长100分钟
资源大小18.3G
字幕语言内嵌简中 内嵌繁中 内嵌英语 
豆瓣评分7.5
豆瓣链接https://movie.douban.com/subject/1303184/
IMDB评分6.3
IMDB链接https://www.imdb.com/title/tt0316023
演员表

异度空间 的主要演员表……

张国荣 / 林嘉欣 / 李子雄 / 周嘉玲 / 徐少强 / 潘美琪
影片介绍

异度空间 的剧情介绍……

章昕(林嘉欣 饰)得知房东的妻儿死于泥石流后,总会看见她们的鬼魂,令男友无法忍受折磨离她而去,无奈之下,她求助于心理医师阿占(张国荣 饰)。阿占清楚知道章昕所见不过是因长久孤闭所生幻觉,开始竭尽全能帮助她,终使其慢慢脱离了种种恐怖的意想。两人在这一过程中渐渐生出感情。
  当置身阿占的生活空间时,章昕发现阿占有诸多怪异举动,调查过后,发现他患有严重的精神分裂,一到晚上某时即被幻象所困痛不欲生。为了让爱人回归正常,章昕决定帮助他赶走心里的魔障。
资源下载
1080i/p下载地址 点击查看
4K下载地址 点击查看
《异度空间》下载帮助和注意事项:
1、本站所有资源均为磁力链资源,无需注册登录即可查看下载地址
2、使用迅雷或网盘离线是无法下载资源的!必须使用BT下载工具,如果没有下载速度请添加我们提供的tracker服务器列表
3、推荐BT下载工具:比特彗星qbittorrentutorrent 内网使用路由请做好端口映射或开启UPnP
4、不管选择哪种P2P下载工具,都希望你能在条件允许的前提下不要限速多做种分享上传一段时间
5、刻意限制P2P下载工具的上传速度(此行为俗称:吸血)将影响你的下载速度 防止被吸血和防止运营商过滤的教程
6、人人为我我为人人,只有大家不限制上传速度,大家才能共同获得更快的下载速度,这才是P2P应有的良性循环!
7、所有资源来源网络,本站服务器不存储任何种子文件,如侵犯您的权益,请联系 [email protected] 删除资源
点评&资源版本介绍
 
异度空间 大海战2 硬核RTS海战游戏-画面党手残党慎入.jpg
General
Unique ID                      : 337969399343010453404227171055851360824 (0xFE4289E4D7FA3742F8C4856D24355238)
Format                         : Matroska
Format version                 : Version 4
File size                      : 18.2 GiB
Duration                       : 1 h 39 min
Overall bit rate mode          : Variable
Overall bit rate               : 26.1 Mb/s
Encoded date                   : UTC 2021-04-02 06:56:52
Writing application            : mkvmerge v53.0.0 ('Fool's Gold') 64-bit
Writing library                : libebml v1.4.1 + libmatroska v1.6.2

Video
ID                             : 1
Format                         : AVC
Format/Info                    : Advanced Video Codec
Format profile                 : [email protected]
Format settings                : CABAC / 4 Ref Frames
Format settings, CABAC         : Yes
Format settings, Reference fra : 4 frames
Codec ID                       : V_MPEG4/ISO/AVC
Duration                       : 1 h 39 min
Bit rate mode                  : Variable
Bit rate                       : 20.5 Mb/s
Maximum bit rate               : 28.0 Mb/s
Width                          : 1 920 pixels
Height                         : 1 080 pixels
Display aspect ratio           : 16:9
Frame rate mode                : Constant
Frame rate                     : 24.000 FPS
Standard                       : NTSC
Color space                    : YUV
Chroma subsampling             : 4:2:0
Bit depth                      : 8 bits
Scan type                      : Progressive
Bits/(Pixel*Frame)             : 0.412
Stream size                    : 14.3 GiB (78%)
Default                        : Yes
Forced                         : No
Color range                    : Limited
Color primaries                : BT.709
Transfer characteristics       : BT.709
Matrix coefficients            : BT.709

Audio #1
ID                             : 2
Format                         : MLP FBA
Format/Info                    : Meridian Lossless Packing FBA
Commercial name                : Dolby TrueHD
Codec ID                       : A_TRUEHD
Duration                       : 1 h 39 min
Bit rate mode                  : Variable
Bit rate                       : 2 805 kb/s
Maximum bit rate               : 3 228 kb/s
Channel(s)                     : 6 channels
Channel layout                 : L R C LFE Ls Rs
Sampling rate                  : 96.0 kHz
Frame rate                     : 1 200.000 FPS (80 SPF)
Compression mode               : Lossless
Stream size                    : 1.96 GiB (11%)
Title                          : CHT
Language                       : Chinese
Default                        : No
Forced                         : No

Audio #2
ID                             : 3
Format                         : MLP FBA
Format/Info                    : Meridian Lossless Packing FBA
Commercial name                : Dolby TrueHD
Codec ID                       : A_TRUEHD
Duration                       : 1 h 39 min
Bit rate mode                  : Variable
Bit rate                       : 2 690 kb/s
Maximum bit rate               : 3 240 kb/s
Channel(s)                     : 6 channels
Channel layout                 : L R C LFE Ls Rs
Sampling rate                  : 96.0 kHz
Frame rate                     : 1 200.000 FPS (80 SPF)
Compression mode               : Lossless
Stream size                    : 1.88 GiB (10%)
Title                          : CHS
Language                       : Chinese
Default                        : Yes
Forced                         : No

Text #1
ID                             : 4
Format                         : PGS
Muxing mode                    : zlib
Codec ID                       : S_HDMV/PGS
Codec ID/Info                  : Picture based subtitle format used on BDs/HD-DVDs
Duration                       : 1 h 34 min
Bit rate                       : 29.4 kb/s
Count of elements              : 1936
Stream size                    : 19.8 MiB (0%)
Title                          : CHT
Language                       : Chinese
Default                        : No
Forced                         : No

Text #2
ID                             : 5
Format                         : PGS
Muxing mode                    : zlib
Codec ID                       : S_HDMV/PGS
Codec ID/Info                  : Picture based subtitle format used on BDs/HD-DVDs
Duration                       : 1 h 34 min
Bit rate                       : 28.8 kb/s
Count of elements              : 1936
Stream size                    : 19.4 MiB (0%)
Title                          : CHS
Language                       : Chinese
Default                        : Yes
Forced                         : No

Text #3
ID                             : 6
Format                         : PGS
Muxing mode                    : zlib
Codec ID                       : S_HDMV/PGS
Codec ID/Info                  : Picture based subtitle format used on BDs/HD-DVDs
Duration                       : 1 h 34 min
Bit rate                       : 33.0 kb/s
Count of elements              : 1939
Stream size                    : 22.2 MiB (0%)
Language                       : English
Default                        : No
Forced                         : No

标签:inner1080p
分享快乐!
回复

使用道具 举报

 

精彩评论5

正序浏览
myyejin 发表于 2020-11-23 08:55 | 显示全部楼层
 
前几天刚求的片子,就这么毫无防备的出了!!
站长大大威武!必须夸!!!
分享快乐!
回复

使用道具 举报

 
dhtclub 发表于 2020-11-23 11:21 | 显示全部楼层
 
myyejin 发表于 2020-11-23 08:55
前几天刚求的片子,就这么毫无防备的出了!!
站长大大威武!必须夸!!!

画质其实一般,但是是目前能找到的最清晰的了。
分享快乐!
回复

使用道具 举报

 
 楼主| myyejin 发表于 2020-11-24 09:00 | 显示全部楼层
 
dhtclub 发表于 2020-11-23 11:21
画质其实一般,但是是目前能找到的最清晰的了。

谢谢!!已经很开心啦~~
分享快乐!
回复

使用道具 举报

 
dhtclub 发表于 2021-4-2 21:53 | 显示全部楼层
 
myyejin 发表于 2020-11-23 08:55
前几天刚求的片子,就这么毫无防备的出了!!
站长大大威武!必须夸!!!

更新了蓝光片源,需要的话重新获取地址下载。
分享快乐!
回复

使用道具 举报

 
 楼主| 三行而后思 发表于 2021-6-24 09:45 | 显示全部楼层
 
这个可是有年头了,没想到还是这么大?我的硬盘啊。
分享快乐!
回复

使用道具 举报

 
您需要登录后才可以回帖 登录 | 立即注册

本版积分规则

0关注

11粉丝

838帖子

广告位
经典RPG武侠手游,安卓首发。
  • 版块推荐
  • 百宝箱
推荐阅读更多+
会员达人更多+
广告位
经典RPG武侠手游,安卓首发。

信息推荐

更多+

最新信息

更多+

加入我们!分享快乐!

人人为我,我为人人!抵制吸血和收费分享行为!

从我做起!

只分享高品质影视资源

只求质量、不求数量、不抢首发!

Email:[email protected]

DHTCLUB - 高品质影视资源分享俱乐部