开启左侧

大时代.The.Greed.Of.Man.1992.WEB-DL.4k.H265.AAC-DHTCLUB

[复制链接]
dhtclub 发表于 2020-11-23 17:23 | 显示全部楼层 |阅读模式 打印 上一主题 下一主题

大时代购买VIP查看下载地址(90年代)4K 

简介当红股票经纪方进新(刘松仁)被相交数十年的朋友丁蟹(郑少秋)杀死后,所遗四子女得继室罗惠玲(蓝洁瑛)照顾长大成人,长子方展博(刘青云)在事业迷茫之际得其生前旧友叶天(罗乐林)教诲,决定继承父业。得悉当年被关进台湾监狱里的丁蟹已潜逃返港时,方展博立誓要为父报仇,终令其再入 监狱,却也因此得罪了其有庞大黑社会背景的儿子丁孝蟹(邵仲衡)、丁益蟹(陶大宇)等人,弄得一家人除他之外先后都死于这伙人之手。
  丁蟹获提早假释出狱进军股票界,不想事业竟一帆风顺,方展博在众人,尤其红颜知已阮梅(周慧敏)和龙纪文(郭蔼明)、好友陈滔滔(林保怡)的帮助下,欲借股票把丁蟹彻底打败。
导演韦家辉
编剧关静雯 / 关静云 / 方世强 / 陈宝燕 / 伍立光 / 张莉莉 / 龙文康 / 陈宝华 / 张宝燕
类型剧情 
地区中国香港 
语言普通话 
集数40集
资源大小61.7G
字幕语言内嵌简中 
豆瓣评分9.3
豆瓣链接https://movie.douban.com/subject/1878605/
IMDB评分9.0
IMDB链接https://www.imdb.com/title/tt0843185
演员表

大时代 的主要演员表……

郑少秋 / 刘青云 / 周慧敏 / 郭蔼明 / 李丽珍 / 蓝洁瑛 / 邵仲衡 / 欧阳莎菲 / 陶大宇 / 吴启明 / 刘松仁 / 杨羚 / 林保怡 / 吴咏红
影片介绍

大时代 的剧情介绍……

当红股票经纪方进新(刘松仁)被相交数十年的朋友丁蟹(郑少秋)杀死后,所遗四子女得继室罗惠玲(蓝洁瑛)照顾长大成人,长子方展博(刘青云)在事业迷茫之际得其生前旧友叶天(罗乐林)教诲,决定继承父业。得悉当年被关进台湾监狱里的丁蟹已潜逃返港时,方展博立誓要为父报仇,终令其再入 监狱,却也因此得罪了其有庞大黑社会背景的儿子丁孝蟹(邵仲衡)、丁益蟹(陶大宇)等人,弄得一家人除他之外先后都死于这伙人之手。
  丁蟹获提早假释出狱进军股票界,不想事业竟一帆风顺,方展博在众人,尤其红颜知已阮梅(周慧敏)和龙纪文(郭蔼明)、好友陈滔滔(林保怡)的帮助下,欲借股票把丁蟹彻底打败。
资源下载
1080i/p下载地址 点击查看
4K下载地址 点击查看
《大时代》下载帮助和注意事项:
1、本站所有资源均为磁力链资源,无需注册登录即可查看下载地址
2、使用迅雷或网盘离线是无法下载资源的!必须使用BT下载工具,如果没有下载速度请添加我们提供的tracker服务器列表
3、推荐BT下载工具:比特彗星qbittorrentutorrent 内网使用路由请做好端口映射或开启UPnP
4、不管选择哪种P2P下载工具,都希望你能在条件允许的前提下不要限速多做种分享上传一段时间
5、刻意限制P2P下载工具的上传速度(此行为俗称:吸血)将影响你的下载速度 防止被吸血和防止运营商过滤的教程
6、人人为我我为人人,只有大家不限制上传速度,大家才能共同获得更快的下载速度,这才是P2P应有的良性循环!
7、所有资源来源网络,本站服务器不存储任何种子文件,如侵犯您的权益,请联系 [email protected] 删除资源
点评&资源版本介绍
 
大时代.E01 大海战2 硬核RTS海战游戏-画面党手残党慎入.jpg
General
Format                         : MPEG-4
Format profile                 : Base Media
Codec ID                       : isom (isom/iso2/mp41)
File size                      : 1.50 GiB
Duration                       : 44 min 42 s
Overall bit rate mode          : Variable
Overall bit rate               : 4 796 kb/s
Writing application            : Lavf58.17.103

Video
ID                             : 1
Format                         : HEVC
Format/Info                    : High Efficiency Video Coding
Format profile                 : [email protected]@Main
Codec ID                       : hev1
Codec ID/Info                  : High Efficiency Video Coding
Duration                       : 44 min 42 s
Bit rate                       : 4 599 kb/s
Width                          : 2 860 pixels
Height                         : 2 160 pixels
Display aspect ratio           : 4:3
Frame rate mode                : Constant
Frame rate                     : 25.000 FPS
Color space                    : YUV
Chroma subsampling             : 4:2:0
Bit depth                      : 8 bits
Bits/(Pixel*Frame)             : 0.030
Stream size                    : 1.44 GiB (96%)
Codec configuration box        : hvcC

Audio
ID                             : 2
Format                         : AAC LC
Format/Info                    : Advanced Audio Codec Low Complexity
Codec ID                       : mp4a-40-2
Duration                       : 44 min 42 s
Bit rate mode                  : Variable
Bit rate                       : 192 kb/s
Channel(s)                     : 2 channels
Channel layout                 : L R
Sampling rate                  : 44.1 kHz
Frame rate                     : 43.066 FPS (1024 SPF)
Compression mode               : Lossy
Stream size                    : 60.6 MiB (4%)
Default                        : Yes
Alternate group                : 1


分享快乐!
回复

使用道具 举报

 

精彩评论8

正序浏览
无言的山丘 发表于 2020-11-23 23:00 | 显示全部楼层
 
经典港片,收藏了!
分享快乐!
回复

使用道具 举报

 
飞猪 发表于 2020-11-25 01:35 | 显示全部楼层
 
这是我最喜欢的港剧之一。郑少秋经典影片


希望楼主把豆瓣里8.0分以上的电视剧全部发布


多谢楼主分享

分享快乐!
回复

使用道具 举报

 
bonita2052 发表于 2021-1-7 18:26 | 显示全部楼层
 
没有第9集,希望能补一下
分享快乐!
回复

使用道具 举报

 
dhtclub 发表于 2021-1-8 21:32 | 显示全部楼层
 
bonita2052 发表于 2021-1-7 18:26
没有第9集,希望能补一下

有第九集,检查过没问题。
分享快乐!
回复

使用道具 举报

 
 楼主| 宝娜果 发表于 2021-3-24 22:04 | 显示全部楼层
 
谢谢分享,已收藏。奢望能看见《义不容情》的重制版,也是非常经典的一部剧
分享快乐!
回复

使用道具 举报

 
svipdht 发表于 2021-4-2 11:25 | 显示全部楼层
 
这个厉害!给力!
分享快乐!
回复

使用道具 举报

 
niclove 发表于 2021-4-4 13:17 | 显示全部楼层
 
神片,没想到还有些K版,谢谢
分享快乐!
回复

使用道具 举报

 
niclove 发表于 2021-7-8 08:28 | 显示全部楼层
 
这个厉害了,非常感谢
分享快乐!
回复

使用道具 举报

 
您需要登录后才可以回帖 登录 | 立即注册

本版积分规则

0关注

11粉丝

838帖子

广告位
经典RPG武侠手游,安卓首发。
  • 版块推荐
  • 百宝箱
推荐阅读更多+
会员达人更多+
广告位
经典RPG武侠手游,安卓首发。

信息推荐

更多+

最新信息

更多+

加入我们!分享快乐!

人人为我,我为人人!抵制吸血和收费分享行为!

从我做起!

只分享高品质影视资源

只求质量、不求数量、不抢首发!

Email:[email protected]

DHTCLUB - 高品质影视资源分享俱乐部