开启左侧

复活的军团.An.Army.Reborn.2004.1080p.HDTV.AC3.MPEG2-DHTCLUB

[复制链接]
dhtclub 发表于 2020-12-10 01:52 | 显示全部楼层 |阅读模式 打印 上一主题 下一主题

复活的军团购买VIP查看下载地址(2005~2000)1080P 

简介这套纪录片分六集、合三小时,展示了秦军团的昔日荣光
  王者之师:秦人由西北牧场崛起,因护周有功而获封,历550年征伐统一中国。七十年代兵马俑的出土还原了秦国的神秘军队。血色青铜:虽然秦军的青铜武器落后于铁器,但经过合理设计的剑、弩、箭头,在标准化军工厂中源源不断生产供应战事所需。生死之地:以长平之战为例,再现了秦军兵种构成,作战方式。秦军的步兵由弩兵与武器长度不同的士兵方阵组成,骑兵使用弩箭骚扰,战车可脱离步兵组成集团高速作战。关山飞渡:秦统一六国后,开灵渠进占岭南,拓直道北御匈奴,遍布全国的交通系统和先进的制车工艺为帝国的后勤提供了保障。举国之战:出土竹简所记载的秦国法律条文呈现了秦国耕战策略的具体内容,郑国渠与都江堰造就了秦国的粮仓。与子同仇:《商君法》规定了军功授勋制度,这间接培养了秦人的尚武秉性。
导演金铁木
编剧金铁木
类型历史 战争 
地区中国内地 
语言普通话 
集数6集
资源大小22.4G
字幕语言无内嵌字幕 
豆瓣评分9.0
豆瓣链接https://movie.douban.com/subject/1416297/
IMDB评分升级VIP查看密码
IMDB链接
演员表

复活的军团 的主要演员表……

司马迁 Ma Sze
影片介绍

复活的军团 的剧情介绍……

这套纪录片分六集、合三小时,展示了秦军团的昔日荣光
  王者之师:秦人由西北牧场崛起,因护周有功而获封,历550年征伐统一中国。七十年代兵马俑的出土还原了秦国的神秘军队。血色青铜:虽然秦军的青铜武器落后于铁器,但经过合理设计的剑、弩、箭头,在标准化军工厂中源源不断生产供应战事所需。生死之地:以长平之战为例,再现了秦军兵种构成,作战方式。秦军的步兵由弩兵与武器长度不同的士兵方阵组成,骑兵使用弩箭骚扰,战车可脱离步兵组成集团高速作战。关山飞渡:秦统一六国后,开灵渠进占岭南,拓直道北御匈奴,遍布全国的交通系统和先进的制车工艺为帝国的后勤提供了保障。举国之战:出土竹简所记载的秦国法律条文呈现了秦国耕战策略的具体内容,郑国渠与都江堰造就了秦国的粮仓。与子同仇:《商君法》规定了军功授勋制度,这间接培养了秦人的尚武秉性。
资源下载
1080i/p下载地址 点击查看
4K下载地址 点击查看
《复活的军团》下载帮助和注意事项:
1、本站所有资源均为磁力链资源,无需注册登录即可查看下载地址
2、使用迅雷或网盘离线是无法下载资源的!必须使用BT下载工具,如果没有下载速度请添加我们提供的tracker服务器列表
3、推荐BT下载工具:比特彗星qbittorrentutorrent 内网使用路由请做好端口映射或开启UPnP
4、不管选择哪种P2P下载工具,都希望你能在条件允许的前提下不要限速多做种分享上传一段时间
5、刻意限制P2P下载工具的上传速度(此行为俗称:吸血)将影响你的下载速度 防止被吸血和防止运营商过滤的教程
6、人人为我我为人人,只有大家不限制上传速度,大家才能共同获得更快的下载速度,这才是P2P应有的良性循环!
7、所有资源来源网络,本站服务器不存储任何种子文件,如侵犯您的权益,请联系 [email protected] 删除资源
点评&资源版本介绍
 
复活的军团.EP01 大海战2 硬核RTS海战游戏-画面党手残党慎入.jpg
General
Unique ID                      : 144485752594903293811724079135601343853 (0x6CB2F199563D5080D1575B5180B63D6D)
Format                         : Matroska
Format version                 : Version 4
File size                      : 3.71 GiB
Duration                       : 29 min 36 s
Overall bit rate mode          : Constant
Overall bit rate               : 18.0 Mb/s
Encoded date                   : UTC 2020-12-08 09:40:54
Writing application            : mkvmerge v51.0.0 ('I Wish') 64-bit
Writing library                : libebml v1.4.0 + libmatroska v1.6.2

Video
ID                             : 1
Format                         : MPEG Video
Format version                 : Version 2
Format profile                 : [email protected]
Format settings                : CustomMatrix / BVOP
Format settings, BVOP          : Yes
Format settings, Matrix        : Custom
Format settings, GOP           : M=3, N=12
Format settings, picture struc : Frame
Codec ID                       : V_MPEG2
Codec ID/Info                  : MPEG 1 or 2 Video
Duration                       : 29 min 36 s
Bit rate mode                  : Constant
Bit rate                       : 17.5 Mb/s
Width                          : 1 920 pixels
Height                         : 1 080 pixels
Display aspect ratio           : 16:9
Frame rate mode                : Constant
Frame rate                     : 25.000 FPS
Color space                    : YUV
Chroma subsampling             : 4:2:0
Bit depth                      : 8 bits
Scan type                      : Interlaced
Scan order                     : Top Field First
Compression mode               : Lossy
Bits/(Pixel*Frame)             : 0.338
Time code of first frame       : 00:00:00:00
Time code source               : Group of pictures header
GOP, Open/Closed               : Open
GOP, Open/Closed of first fram : Closed
Stream size                    : 3.62 GiB (97%)
Default                        : Yes
Forced                         : No

Audio
ID                             : 2
Format                         : AC-3
Format/Info                    : Audio Coding 3
Commercial name                : Dolby Digital
Codec ID                       : A_AC3
Duration                       : 29 min 36 s
Bit rate mode                  : Constant
Bit rate                       : 448 kb/s
Channel(s)                     : 2 channels
Channel layout                 : L R
Sampling rate                  : 48.0 kHz
Frame rate                     : 31.250 FPS (1536 SPF)
Compression mode               : Lossy
Delay relative to video        : 8 ms
Stream size                    : 94.9 MiB (2%)
Language                       : English
Service kind                   : Complete Main
Default                        : Yes
Forced                         : No

分享快乐!
回复

使用道具 举报

 
您需要登录后才可以回帖 登录 | 立即注册

本版积分规则

0关注

11粉丝

838帖子

广告位
经典RPG武侠手游,安卓首发。
  • 版块推荐
  • 百宝箱
推荐阅读更多+
会员达人更多+
广告位
经典RPG武侠手游,安卓首发。

信息推荐

更多+

最新信息

更多+

加入我们!分享快乐!

人人为我,我为人人!抵制吸血和收费分享行为!

从我做起!

只分享高品质影视资源

只求质量、不求数量、不抢首发!

Email:[email protected]

DHTCLUB - 高品质影视资源分享俱乐部