开启左侧

恐怖大师.第一季.Masters.of.Horror.2005.1080p.Blu-ray.x265.AC3-DHTCLUB

[复制链接]
dhtclub 发表于 2020-12-19 16:27 | 显示全部楼层 |阅读模式 打印 上一主题 下一主题

恐怖大师 第一季购买VIP查看下载地址(2005~2000)1080P 

简介本套剧集最初创意来自于恐怖片导演米克•加利斯(Mick Garris),2002年他和一众业内同好在加州共餐。席间他们相谈甚欢,惺惺相惜。在此之后,加利斯召集席间的10位导演以及其他恐怖流的高手相约共同打造一套恐怖片剧集。2005年,加利斯身兼制作人和导演两个职务,打造出每集1小时的“恐怖大师”系列(总共两季26集),唐•卡斯卡尔利、斯图尔特•戈登、三池崇史、约翰•麦克诺顿、鹤田法男等名声显赫的导演相继参与其中,联合为恐怖片爱好者奉上惊险刺激的恐怖盛宴。
  本剧集荣获2006年艾美奖杰出主题音乐奖、2006年Sitges – Catalonian国际电影节最佳剧本和评委会特别奖。
导演唐·柯斯卡莱利 / 斯图尔特·戈登 / 托比·霍珀 / 达里奥·阿基多 / 米克·加里斯 / 乔·丹特 / 约翰·兰迪斯 / 约翰·卡朋特 / 威廉.马隆 / 拉齐·马凯 / 拉里·柯恩 / 约翰·麦克诺顿 / 三池崇史
编剧唐·柯斯卡莱利 / 乔·R·兰斯代尔 / 斯图尔特·戈登 / 米克·加里斯 / H·P·洛夫克拉夫特 / Richard Christian Matheson / 理查德·麦瑟森 / 斯蒂文·韦伯 / 约翰·兰迪斯 / 马克斯·兰迪斯 / 德鲁·麦克维尼 / 麦特‧格林伯格 / 希恩·胡德 / 拉齐·马凯 / 克莱夫·巴克 / 天愿大介 / 岩井志麻子
类型恐怖 
地区日本 美国 加拿大 
语言英语 
集数13集
资源大小27G
字幕语言内嵌简中 
豆瓣评分7.1
豆瓣链接https://movie.douban.com/subject/1760775/
IMDB评分7.5
IMDB链接https://www.imdb.com/title/tt0448190/
演员表

恐怖大师 第一季 的主要演员表……

蜷川美穗 / 安东尼·哈里森 / Diego Martinez-Tau / 布莱恩·奔本 / 西娅·吉尔 / 伊斯拉·戈登 / 杰西卡·朗德斯 / 诺曼·瑞杜斯 / 亨利·托马斯 / 布丽·特纳 / 斯蒂文·韦伯 / 斯蒂夫·巴西奇 / 费尔鲁扎·鲍克 / 克里斯·鲍尔 / 比利·德拉戈 / 肖恩·派特里克·弗兰纳里 / 泰伦·莱斯托 / 米特·洛夫 / 罗莉·佩蒂 / 杰森·普雷斯利 / 琳赛·普尔斯菲 / 阿尔杰·史密斯 / 卡特琳·瓦克斯 / 乔治·温迪特 / 朱莉娅·本森 / Caroline Carter / 丹尼尔·吉里斯 / 伊利斯·莱韦斯克 / Brent Sheppard / 格内维夫·布彻纳 / 柯林·富 / 马特·弗里沃 / 坎贝尔·莱恩 / 安格斯·史格林 / 乔恩·坦尼 / 乔纳森·塔克 / 林克·贝克 / 米丝蒂·蒙达伊 / 玛莉莎·寇兰 / 马蒂·芬诺乔 / 春海四方
影片介绍

恐怖大师 第一季 的剧情介绍……

本套剧集最初创意来自于恐怖片导演米克•加利斯(Mick Garris),2002年他和一众业内同好在加州共餐。席间他们相谈甚欢,惺惺相惜。在此之后,加利斯召集席间的10位导演以及其他恐怖流的高手相约共同打造一套恐怖片剧集。2005年,加利斯身兼制作人和导演两个职务,打造出每集1小时的“恐怖大师”系列(总共两季26集),唐•卡斯卡尔利、斯图尔特•戈登、三池崇史、约翰•麦克诺顿、鹤田法男等名声显赫的导演相继参与其中,联合为恐怖片爱好者奉上惊险刺激的恐怖盛宴。
  本剧集荣获2006年艾美奖杰出主题音乐奖、2006年Sitges – Catalonian国际电影节最佳剧本和评委会特别奖。
资源下载
1080i/p下载地址 点击查看
4K下载地址 点击查看
《恐怖大师 第一季》下载帮助和注意事项:
1、本站所有资源均为磁力链资源,无需注册登录即可查看下载地址
2、使用迅雷或网盘离线是无法下载资源的!必须使用BT下载工具,如果没有下载速度请添加我们提供的tracker服务器列表
3、推荐BT下载工具:比特彗星qbittorrentutorrent 内网使用路由请做好端口映射或开启UPnP
4、不管选择哪种P2P下载工具,都希望你能在条件允许的前提下不要限速多做种分享上传一段时间
5、刻意限制P2P下载工具的上传速度(此行为俗称:吸血)将影响你的下载速度 防止被吸血和防止运营商过滤的教程
6、人人为我我为人人,只有大家不限制上传速度,大家才能共同获得更快的下载速度,这才是P2P应有的良性循环!
7、所有资源来源网络,本站服务器不存储任何种子文件,如侵犯您的权益,请联系 [email protected] 删除资源
点评&资源版本介绍
 
恐怖大师 第一季.E01 大海战2 硬核RTS海战游戏-画面党手残党慎入.jpg
General
Unique ID                      : 244765542023756621331990585102975362697 (0xB82420F0C3ACD6D39D67187B630FE689)
Format                         : Matroska
Format version                 : Version 4
File size                      : 1.81 GiB
Duration                       : 51 min 18 s
Overall bit rate               : 5 049 kb/s
Movie name                     : [email protected]
Encoded date                   : UTC 2020-11-19 14:32:46
Writing application            : mkvmerge v7.9.0 ('Birds') 32bit
Writing library                : libebml v1.3.1 + libmatroska v1.4.2

Video
ID                             : 1
Format                         : HEVC
Format/Info                    : High Efficiency Video Coding
Format profile                 : Main [email protected]@Main
Codec ID                       : V_MPEGH/ISO/HEVC
Duration                       : 51 min 18 s
Bit rate                       : 4 599 kb/s
Width                          : 1 920 pixels
Height                         : 1 080 pixels
Display aspect ratio           : 16:9
Frame rate mode                : Constant
Frame rate                     : 29.970 (30000/1001) FPS
Color space                    : YUV
Chroma subsampling             : 4:2:0
Bit depth                      : 10 bits
Bits/(Pixel*Frame)             : 0.074
Stream size                    : 1.65 GiB (91%)
Writing library                : x265 3.4+12-geff904199:[Windows][GCC 5.4.0][32 bit][noasm] 10bit
Encoding settings              : cpuid=0 / frame-threads=2 / numa-pools=4 / wpp / no-pmode / no-pme / no-psnr / no-ssim / log-level=2 / input-csp=1 / input-res=1920x1080 / interlace=0 / total-frames=0 / level-idc=0 / high-tier=1 / uhd-bd=0 / ref=2 / no-allow-non-conformance / no-repeat-headers / annexb / no-aud / no-hrd / info / hash=0 / no-temporal-layers / open-gop / min-keyint=30 / keyint=300 / gop-lookahead=0 / bframes=4 / b-adapt=0 / b-pyramid / bframe-bias=0 / rc-lookahead=15 / lookahead-slices=6 / scenecut=40 / hist-scenecut=0 / radl=0 / no-splice / no-intra-refresh / ctu=64 / min-cu-size=8 / no-rect / no-amp / max-tu-size=32 / tu-inter-depth=1 / tu-intra-depth=1 / limit-tu=0 / rdoq-level=0 / dynamic-rd=0.00 / no-ssim-rd / signhide / no-tskip / nr-intra=0 / nr-inter=0 / no-constrained-intra / strong-intra-smoothing / max-merge=2 / limit-refs=3 / no-limit-modes / me=1 / subme=1 / merange=57 / temporal-mvp / no-frame-dup / no-hme / weightp / no-weightb / no-analyze-src-pics / deblock=0:0 / sao / no-sao-non-deblock / rd=2 / selective-sao=4 / early-skip / rskip / fast-intra / no-tskip-fast / no-cu-lossless / no-b-intra / no-splitrd-skip / rdpenalty=0 / psy-rd=0.00 / psy-rdoq=0.00 / no-rd-refine / no-lossless / cbqpoffs=0 / crqpoffs=0 / rc=abr / bitrate=4680 / qcomp=0.60 / qpstep=4 / stats-write=0 / stats-read=0 / ipratio=1.40 / pbratio=1.30 / aq-mode=2 / aq-strength=1.00 / cutree / zone-count=0 / no-strict-cbr / qg-size=32 / no-rc-grain / qpmax=69 / qpmin=0 / no-const-vbv / sar=1 / overscan=0 / videoformat=5 / range=0 / colorprim=2 / transfer=2 / colormatrix=2 / chromaloc=0 / display-window=0 / cll=0,0 / min-luma=0 / max-luma=1023 / log2-max-poc-lsb=8 / vui-timing-info / vui-hrd-info / slices=1 / no-opt-qp-pps / no-opt-ref-list-length-pps / no-multi-pass-opt-rps / scenecut-bias=0.05 / hist-threshold=0.03 / no-opt-cu-delta-qp / no-aq-motion / no-hdr10 / no-hdr10-opt / no-dhdr10-opt / no-idr-recovery-sei / analysis-reuse-level=0 / analysis-save-reuse-level=0 / analysis-load-reuse-level=0 / scale-factor=0 / refine-intra=0 / refine-inter=0 / refine-mv=1 / refine-ctu-distortion=0 / no-limit-sao / ctu-info=0 / no-lowpass-dct / refine-analysis-type=0 / copy-pic=1 / max-ausize-factor=1.0 / no-dynamic-refine / no-single-sei / no-hevc-aq / no-svt / no-field / qp-adaptation-range=1.00 / no-scenecut-aware-qpconformance-window-offsets / right=0 / bottom=0 / decoder-max-rate=0
Default                        : Yes
Forced                         : Yes
Color range                    : Limited

Audio
ID                             : 2
Format                         : AC-3
Format/Info                    : Audio Coding 3
Commercial name                : Dolby Digital
Codec ID                       : A_AC3
Duration                       : 51 min 18 s
Bit rate mode                  : Constant
Bit rate                       : 448 kb/s
Channel(s)                     : 6 channels
Channel layout                 : L R C LFE Ls Rs
Sampling rate                  : 48.0 kHz
Frame rate                     : 31.250 FPS (1536 SPF)
Compression mode               : Lossy
Stream size                    : 164 MiB (9%)
Title                          : English-DD_5.1
Language                       : English
Service kind                   : Complete Main
Default                        : Yes
Forced                         : No

Text #1
ID                             : 3
Format                         : ASS
Codec ID                       : S_TEXT/ASS
Codec ID/Info                  : Advanced Sub Station Alpha
Duration                       : 49 min 54 s
Bit rate                       : 56 b/s
Count of elements              : 361
Compression mode               : Lossless
Stream size                    : 20.8 KiB (0%)
Title                          : 简体中文-ASS_官方字幕£cXcY
Language                       : Chinese
Default                        : Yes
Forced                         : No

Text #2
ID                             : 4
Format                         : UTF-8
Codec ID                       : S_TEXT/UTF8
Codec ID/Info                  : UTF-8 Plain Text
Duration                       : 49 min 54 s
Bit rate                       : 27 b/s
Count of elements              : 361
Stream size                    : 10.00 KiB (0%)
Title                          : £cXcY简体中文-SRT_官方字幕£cXcY
Language                       : Chinese
Default                        : No
Forced                         : No


分享快乐!
回复

使用道具 举报

 
您需要登录后才可以回帖 登录 | 立即注册

本版积分规则

0关注

11粉丝

838帖子

广告位
经典RPG武侠手游,安卓首发。
  • 版块推荐
  • 百宝箱
推荐阅读更多+
会员达人更多+
广告位
经典RPG武侠手游,安卓首发。

信息推荐

更多+

最新信息

更多+

加入我们!分享快乐!

人人为我,我为人人!抵制吸血和收费分享行为!

从我做起!

只分享高品质影视资源

只求质量、不求数量、不抢首发!

Email:[email protected]

DHTCLUB - 高品质影视资源分享俱乐部